找回密码

蓝光电影网

查看: 452|回复: 0

[恐怖] 女校召灵/索命女校 Seance.2021.720p.BluRay.x264-JustWatch 1.29GB

[复制链接]
蓝光币
733
发表于 2021-10-22 10:49:47 | 显示全部楼层 |阅读模式


◎译  名 女校召灵/索命女校(港)
◎片  名 Seance
◎年  代 2021
◎产  地 美国
◎类  别 可骇
◎语  言 英语
◎上映日期 2021-05-21(美国)
◎豆瓣评分 4.6/10 from 483 users
◎豆瓣链接 https://movie.douban.com/subject/34889479/
◎片  长 93分钟
◎导  演 西蒙·巴雷特 Simon Barrett
◎编  剧 西蒙·巴雷特 Simon Barrett
◎主  演 苏琪·沃特豪斯 Suki Waterhouse
       麦迪逊·贝蒂 Madisen Beaty
       埃拉-雷·史姑娘 Ella-Rae Smith
       伊南娜·萨尔基斯 Inanna Sarkis
       斯蒂芬妮·西 Stephanie Sy
       谢默斯·帕特森 Seamus Patterson
◎标  签 可骇 | 美国 | 悬疑 | 2021 | 可骇片 | 美国电影 | 同性 | 惊悚
◎简  介


  Camille, a young woman who arrives at the Fairfield Academy following one of the student's untimely and violent death.
  1. Video
  2. ID                                       : 1
  3. Format                                   : AVC
  4. Format/Info                              : Advanced Video Codec
  5. Format profile                           : [email protected]
  6. Format settings                          : CABAC / 8 Ref Frames
  7. Format settings, CABAC                   : Yes
  8. Format settings, Reference frames        : 8 frames
  9. Codec ID                                 : V_MPEG4/ISO/AVC
  10. Duration                                 : 1 h 33 min
  11. Bit rate                                 : 1 326 kb/s
  12. Width                                    : 1 280 pixels
  13. Height                                   : 536 pixels
  14. Display aspect ratio                     : 2.40:1
  15. Frame rate mode                          : Constant
  16. Frame rate                               : 23.976 (24000/1001/189150) FPS
  17. Color space                              : YUV
  18. Chroma subsampling                       : 4:2:0
  19. Bit depth                                : 8 bits
  20. Scan type                                : Progressive
  21. Bits/(Pixel*Frame)                       : 0.081
  22. Stream size                              : 883 MiB (67%)
  23. Writing library                          : x264 core 164 r3065 ae03d92
  24. Encoding settings                        : cabac=1 / ref=8 / deblock=1:-3:-3 / analyse=0x3:0x133 / me=umh / subme=9 / psy=1 / psy_rd=1.00:0.00 / mixed_ref=1 / me_range=16 / chroma_me=1 / trellis=2 / 8x8dct=1 / cqm=0 / deadzone=21,11 / fast_pskip=0 / chroma_qp_offset=-2 / threads=17 / lookahead_threads=1 / sliced_threads=0 / nr=0 / decimate=1 / interlaced=0 / bluray_compat=0 / constrained_intra=0 / bframes=3 / b_pyramid=2 / b_adapt=2 / b_bias=0 / direct=3 / weightb=1 / open_gop=0 / weightp=2 / keyint=250 / keyint_min=23 / scenecut=40 / intra_refresh=0 / rc_lookahead=60 / rc=crf / mbtree=1 / crf=17.0 / qcomp=0.60 / qpmin=0 / qpmax=69 / qpstep=4 / ip_ratio=1.40 / aq=1:1.00
  25. Language                                 : English
  26. Default                                  : Yes
  27. Forced                                   : No

  28. Audio
  29. ID                                       : 2
  30. Format                                   : AC-3
  31. Format/Info                              : Audio Coding 3
  32. Commercial name                          : Dolby Digital
  33. Codec ID                                 : A_AC3
  34. Duration                                 : 1 h 33 min
  35. Bit rate mode                            : Constant
  36. Bit rate                                 : 640 kb/s
  37. Channel(s)                               : 6 channels
  38. Channel layout                           : L R C LFE Ls Rs
  39. Sampling rate                            : 48.0 kHz
  40. Frame rate                               : 31.250 FPS (1536 SPF)
  41. Compression mode                         : Lossy
  42. Stream size                              : 426 MiB (32%)
  43. Language                                 : English
  44. Service kind                             : Complete Main
  45. Default                                  : Yes
  46. Forced                                   : No

  47. Text #1
  48. ID                                       : 3
  49. Format                                   : PGS
  50. Muxing mode                              : zlib
  51. Codec ID                                 : S_HDMV/PGS
  52. Codec ID/Info                            : Picture based subtitle format used on BDs/HD-DVDs
  53. Duration                                 : 1 h 31 min
  54. Bit rate                                 : 26.5 kb/s
  55. Count of elements                        : 1580
  56. Stream size                              : 17.3 MiB (1%)
  57. Language                                 : German
  58. Default                                  : No
  59. Forced                                   : No

  60. Text #2
  61. ID                                       : 4
  62. Format                                   : PGS
  63. Muxing mode                              : zlib
  64. Codec ID                                 : S_HDMV/PGS
  65. Codec ID/Info                            : Picture based subtitle format used on BDs/HD-DVDs
  66. Duration                                 : 10 min 46 s
  67. Bit rate                                 : 2 057 b/s
  68. Count of elements                        : 20
  69. Stream size                              : 162 KiB (0%)
  70. Language                                 : German
  71. Default                                  : No
  72. Forced                                   : No

  73. Menu
  74. 00:00:00.000                             : en:Chapter 01
  75. 00:09:20.935                             : en:Chapter 02
  76. 00:16:13.973                             : en:Chapter 03
  77. 00:24:03.108                             : en:Chapter 04
  78. 00:32:26.528                             : en:Chapter 05
  79. 00:40:20.209                             : en:Chapter 06
  80. 00:47:46.655                             : en:Chapter 07
  81. 00:57:52.969                             : en:Chapter 08
  82. 01:05:38.768                             : en:Chapter 09
  83. 01:15:31.026                             : en:Chapter 10
  84. 01:23:16.825                             : en:Chapter 11
  85. 01:27:53.685                             : en:Chapter 12
复制代码




                                       
                                       

                                       
                                       
                                       




回复

使用道具 举报

懒得打字嘛,点击右侧快捷回复 【右侧内容,后台自定义】
您需要登录后才可以回帖 登录 | 立即加入

本版积分规则

Archiver|小黑屋| 蓝光电影网 |网站地图

Copyright © 2021 Comsenz Inc. Powered by 蓝光电影网

蓝光电影网

本站内容由用户自主分享和转载自互联网,转载目的在于传递更多信息,并不代表本网赞同其观点和对其真实性负责。

如有侵权、违反国家法律政策行为,请联系我们,我们会第一时间及时清除和处理!

举报反馈邮箱:[email protected]

快速回复 返回顶部 返回列表