找回密码

蓝光电影网

查看: 380|回复: 0

[动作] 校园大逃杀/杀戮校园 Run.Hide.Fight.2020.720p.BluRay.x264-JustWatch 2.07GB

[复制链接]
蓝光币
682
发表于 2021-10-22 10:57:53 | 显示全部楼层 |阅读模式


◎译  名 校园大逃杀/杀戮校园/校园大流亡
◎片  名 Run Hide Fight
◎年  代 2020
◎产  地 美国
◎类  别 行动 / 惊悚 / 犯罪
◎语  言 英语
◎上映日期 2020-09-10(威尼斯电影节) / 2021-01-14(美国)
◎豆瓣评分 5.9/10 from 3995 users
◎豆瓣链接 https://movie.douban.com/subject/34930801/
◎片  长 109分钟
◎导  演 凯尔·兰金 Kyle Rankin
◎编  剧 凯尔·兰金 Kyle Rankin
◎主  演 伊莎贝尔·梅 Isabel May
       伊莱·布朗 Eli Brown
       奥利·索罗坦 Olly Sholotan
       托马斯·简 Thomas Jane
       拉达·米切尔 Radha Mitchell
       特里特·威廉斯 Treat Williams
       赛勒斯·阿诺德 Cyrus Arnold
       布里顿·瑟尔 Britton Sear
       芭芭拉·克兰普顿 Barbara Crampton
       乔尔·迈克利 Joel Michaely
       Gerardo Davila Gerardo Davila
       玛丽·迪斯 Mary Deese
       小詹姆斯·希利 James Healy Jr.
        Mya Holloway
        Zachary Le Vey
       CG刘易斯 CG Lewis
       布赖恩·马西 Bryan Massey
        Amelia Galindo
       肯妮莎·汤普森 Kenneisha Thompson
       辛迪·维拉 Cindy Vela
       凯特·希金斯 Kate Higgins
◎标  签 犯罪 | 美国 | 行动 | 惊悚 | 美国电影 | 2020 | 电影 | 可骇
◎简  介


  《Night Of The Living Deb》和《The Witch Files》背后的电影人凯尔·兰金(Kyle Rankin)完成了一项奥秘项目“Run Hide Fight”,该项目报告的是一个17岁的女孩,她必须用自己的聪明才能在黉舍拍摄中保存。现在,它将成为Rebeller公司刊行的第一部电影,Cinestate刊行了该电影来会商所谓的“不法内容”空间中的电影,重点关注好莱坞轻忽的范例以及好莱坞惧怕的剧本。
  1. Video
  2. ID                                       : 1
  3. Format                                   : AVC
  4. Format/Info                              : Advanced Video Codec
  5. Format profile                           : [email protected]
  6. Format settings                          : CABAC / 8 Ref Frames
  7. Format settings, CABAC                   : Yes
  8. Format settings, Reference frames        : 8 frames
  9. Codec ID                                 : V_MPEG4/ISO/AVC
  10. Duration                                 : 1 h 49 min
  11. Bit rate                                 : 2 052 kb/s
  12. Width                                    : 1 280 pixels
  13. Height                                   : 536 pixels
  14. Display aspect ratio                     : 2.40:1
  15. Frame rate mode                          : Constant
  16. Frame rate                               : 23.976 (24000/1001/189150) FPS
  17. Color space                              : YUV
  18. Chroma subsampling                       : 4:2:0
  19. Bit depth                                : 8 bits
  20. Scan type                                : Progressive
  21. Bits/(Pixel*Frame)                       : 0.125
  22. Stream size                              : 1.57 GiB (76%)
  23. Writing library                          : x264 core 164 r3065 ae03d92
  24. Encoding settings                        : cabac=1 / ref=8 / deblock=1:-3:-3 / analyse=0x3:0x133 / me=umh / subme=9 / psy=1 / psy_rd=1.00:0.00 / mixed_ref=1 / me_range=16 / chroma_me=1 / trellis=2 / 8x8dct=1 / cqm=0 / deadzone=21,11 / fast_pskip=0 / chroma_qp_offset=-2 / threads=17 / lookahead_threads=1 / sliced_threads=0 / nr=0 / decimate=1 / interlaced=0 / bluray_compat=0 / constrained_intra=0 / bframes=3 / b_pyramid=2 / b_adapt=2 / b_bias=0 / direct=3 / weightb=1 / open_gop=0 / weightp=2 / keyint=250 / keyint_min=23 / scenecut=40 / intra_refresh=0 / rc_lookahead=60 / rc=crf / mbtree=1 / crf=17.0 / qcomp=0.60 / qpmin=0 / qpmax=69 / qpstep=4 / ip_ratio=1.40 / aq=1:1.00
  25. Language                                 : English
  26. Default                                  : Yes
  27. Forced                                   : No

  28. Audio
  29. ID                                       : 2
  30. Format                                   : AC-3
  31. Format/Info                              : Audio Coding 3
  32. Commercial name                          : Dolby Digital
  33. Codec ID                                 : A_AC3
  34. Duration                                 : 1 h 49 min
  35. Bit rate mode                            : Constant
  36. Bit rate                                 : 640 kb/s
  37. Channel(s)                               : 6 channels
  38. Channel layout                           : L R C LFE Ls Rs
  39. Sampling rate                            : 48.0 kHz
  40. Frame rate                               : 31.250 FPS (1536 SPF)
  41. Compression mode                         : Lossy
  42. Stream size                              : 501 MiB (24%)
  43. Language                                 : English
  44. Service kind                             : Complete Main
  45. Default                                  : Yes
  46. Forced                                   : No

  47. Text #1
  48. ID                                       : 3
  49. Format                                   : PGS
  50. Muxing mode                              : zlib
  51. Codec ID                                 : S_HDMV/PGS
  52. Codec ID/Info                            : Picture based subtitle format used on BDs/HD-DVDs
  53. Duration                                 : 1 h 40 min
  54. Bit rate                                 : 37.7 kb/s
  55. Count of elements                        : 3270
  56. Stream size                              : 27.1 MiB (1%)
  57. Language                                 : German
  58. Default                                  : No
  59. Forced                                   : No

  60. Text #2
  61. ID                                       : 4
  62. Format                                   : PGS
  63. Muxing mode                              : zlib
  64. Codec ID                                 : S_HDMV/PGS
  65. Codec ID/Info                            : Picture based subtitle format used on BDs/HD-DVDs
  66. Duration                                 : 1 h 17 min
  67. Bit rate                                 : 600 b/s
  68. Count of elements                        : 38
  69. Stream size                              : 339 KiB (0%)
  70. Language                                 : German
  71. Default                                  : No
  72. Forced                                   : No

  73. Menu
  74. 00:00:00.000                             : en:Chapter 01
  75. 00:08:30.552                             : en:Chapter 02
  76. 00:16:38.289                             : en:Chapter 03
  77. 00:24:26.423                             : en:Chapter 04
  78. 00:35:51.733                             : en:Chapter 05
  79. 00:42:49.567                             : en:Chapter 06
  80. 00:58:03.980                             : en:Chapter 07
  81. 01:07:15.156                             : en:Chapter 08
  82. 01:14:09.695                             : en:Chapter 09
  83. 01:23:11.403                             : en:Chapter 10
  84. 01:31:15.428                             : en:Chapter 11
  85. 01:42:16.797                             : en:Chapter 12
复制代码





                                       
                                       

                                       
                                       
                                       




回复

使用道具 举报

懒得打字嘛,点击右侧快捷回复 【右侧内容,后台自定义】
您需要登录后才可以回帖 登录 | 立即加入

本版积分规则

Archiver|小黑屋| 蓝光电影网 |网站地图

Copyright © 2021 Comsenz Inc. Powered by 蓝光电影网

蓝光电影网

本站内容由用户自主分享和转载自互联网,转载目的在于传递更多信息,并不代表本网赞同其观点和对其真实性负责。

如有侵权、违反国家法律政策行为,请联系我们,我们会第一时间及时清除和处理!

举报反馈邮箱:[email protected]

快速回复 返回顶部 返回列表