找回密码

蓝光电影网

查看: 542|回复: 1

[动作] 猎鬼行动 Vampires.Los.Muertos.2002.1080p.BluRay.x264-FREEMAN 8.78GB

[复制链接]
蓝光币
682
发表于 2021-10-22 11:09:51 | 显示全部楼层 |阅读模式


◎译  名 猎鬼行动
◎片  名 Vampires: Los Muertos
◎年  代 2002
◎产  地 美国
◎类  别 行动 / 惊悚 / 可骇
◎语  言 英语
◎上映日期 2002-09-24
◎豆瓣评分 6.1/10 from 111 users
◎豆瓣链接 https://movie.douban.com/subject/1301293/
◎片  长 USA: 93 分钟
◎主  演 Anilú Pardo Anilú Pardo
       艾贝尔·伍尔里奇 Abel Woolrich
       亚历杭德拉·戈拉斯 Alejandra Gollas
       雅丽·乔维尔 Arly Jover
◎标  签 吸血鬼 | 可骇 | 行动 | Vampires | 美国电影 | 美国 | 惊悚 | 2002
◎简  介


  德瑞克是一位行侠仗义的吸血鬼猎人,终年在墨西哥捕杀一群名为「嗜人鬼」的使命,有一天接到奥秘人物的拜托,要去追捕一群势力庞大,嗜血如命、来去无踪的吸血鬼,特别是他们的首领。
  1. Video
  2. ID                                       : 1
  3. Format                                   : AVC
  4. Format/Info                              : Advanced Video Codec
  5. Format profile                           : [email protected]
  6. Format settings                          : CABAC / 5 Ref Frames
  7. Format settings, CABAC                   : Yes
  8. Format settings, Reference frames        : 5 frames
  9. Codec ID                                 : V_MPEG4/ISO/AVC
  10. Duration                                 : 1 h 33 min
  11. Bit rate                                 : 11.0 Mb/s
  12. Width                                    : 1 920 pixels
  13. Height                                   : 820 pixels
  14. Display aspect ratio                     : 2.35:1
  15. Frame rate mode                          : Constant
  16. Frame rate                               : 23.976 (24000/1001/189150) FPS
  17. Color space                              : YUV
  18. Chroma subsampling                       : 4:2:0
  19. Bit depth                                : 8 bits
  20. Scan type                                : Progressive
  21. Bits/(Pixel*Frame)                       : 0.292
  22. Stream size                              : 7.20 GiB (82%)
  23. Writing library                          : x264 core 164 r3075 66a5bc1
  24. Encoding settings                        : cabac=1 / ref=5 / deblock=1:-3:-3 / analyse=0x3:0x133 / me=umh / subme=9 / psy=1 / psy_rd=1.00:0.00 / mixed_ref=1 / me_range=16 / chroma_me=1 / trellis=2 / 8x8dct=1 / cqm=0 / deadzone=21,11 / fast_pskip=0 / chroma_qp_offset=-2 / threads=24 / lookahead_threads=2 / sliced_threads=0 / nr=0 / decimate=1 / interlaced=0 / bluray_compat=0 / constrained_intra=0 / bframes=3 / b_pyramid=2 / b_adapt=2 / b_bias=0 / direct=3 / weightb=1 / open_gop=0 / weightp=2 / keyint=250 / keyint_min=23 / scenecut=40 / intra_refresh=0 / rc_lookahead=60 / rc=crf / mbtree=1 / crf=18.0 / qcomp=0.60 / qpmin=0 / qpmax=69 / qpstep=4 / ip_ratio=1.40 / aq=3:0.60
  25. Default                                  : Yes
  26. Forced                                   : No
  27. Color range                              : Limited
  28. Matrix coefficients                      : BT.709

  29. Audio
  30. ID                                       : 2
  31. Format                                   : DTS XLL
  32. Format/Info                              : Digital Theater Systems
  33. Commercial name                          : DTS-HD Master Audio
  34. Codec ID                                 : A_DTS
  35. Duration                                 : 1 h 33 min
  36. Bit rate mode                            : Variable
  37. Bit rate                                 : 2 399 kb/s
  38. Channel(s)                               : 6 channels
  39. Channel layout                           : C L R Ls Rs LFE
  40. Sampling rate                            : 48.0 kHz
  41. Frame rate                               : 93.750 FPS (512 SPF)
  42. Bit depth                                : 16 bits
  43. Compression mode                         : Lossless
  44. Stream size                              : 1.57 GiB (18%)
  45. Language                                 : English
  46. Default                                  : Yes
  47. Forced                                   : No

  48. Text #1
  49. ID                                       : 3
  50. Format                                   : PGS
  51. Muxing mode                              : zlib
  52. Codec ID                                 : S_HDMV/PGS
  53. Codec ID/Info                            : Picture based subtitle format used on BDs/HD-DVDs
  54. Duration                                 : 1 h 27 min
  55. Bit rate                                 : 19.9 kb/s
  56. Count of elements                        : 1316
  57. Stream size                              : 12.5 MiB (0%)
  58. Language                                 : English
  59. Default                                  : No
  60. Forced                                   : No

  61. Text #2
  62. ID                                       : 4
  63. Format                                   : PGS
  64. Muxing mode                              : zlib
  65. Codec ID                                 : S_HDMV/PGS
  66. Codec ID/Info                            : Picture based subtitle format used on BDs/HD-DVDs
  67. Duration                                 : 1 h 28 min
  68. Bit rate                                 : 17.4 kb/s
  69. Count of elements                        : 1019
  70. Stream size                              : 11.1 MiB (0%)
  71. Language                                 : German
  72. Default                                  : No
  73. Forced                                   : No

  74. Menu
  75. 00:00:00.000                             : en:00:00:00.000
  76. 00:12:05.725                             : en:00:12:05.725
  77. 00:23:03.007                             : en:00:23:03.007
  78. 00:36:56.214                             : en:00:36:56.214
  79. 00:47:46.363                             : en:00:47:46.363
  80. 00:59:59.387                             : en:00:59:59.387
  81. 01:12:02.985                             : en:01:12:02.985
  82. 01:21:07.237                             : en:01:21:07.237
  83. 01:29:25.610                             : en:01:29:25.610
复制代码





                                       
                                       

                                       
                                       
                                       




回复

使用道具 举报

蓝光币
1
发表于 2021-10-26 20:23:03 | 显示全部楼层
很好66666
回复

使用道具 举报

懒得打字嘛,点击右侧快捷回复 【右侧内容,后台自定义】
您需要登录后才可以回帖 登录 | 立即加入

本版积分规则

Archiver|小黑屋| 蓝光电影网 |网站地图

Copyright © 2021 Comsenz Inc. Powered by 蓝光电影网

蓝光电影网

本站内容由用户自主分享和转载自互联网,转载目的在于传递更多信息,并不代表本网赞同其观点和对其真实性负责。

如有侵权、违反国家法律政策行为,请联系我们,我们会第一时间及时清除和处理!

举报反馈邮箱:[email protected]

快速回复 返回顶部 返回列表