找回密码

蓝光电影网

查看: 536|回复: 0

[科幻] 警告 Warning.2021.1080p.BluRay.x264.DTS-HD.MA.5.1-MT 7.26GB

[复制链接]
蓝光币
730
发表于 2021-10-22 11:34:52 | 显示全部楼层 |阅读模式


◎译  名 警告
◎片  名 Warning
◎年  代 2021
◎产  地 美国,加拿大
◎类  别 科幻 / 惊悚
◎语  言 英语
◎上映日期 2021-10-13(锡切斯奇异电影节) / 2021-10-22(美国)
◎豆瓣评分 5.2/10 from 124 users
◎豆瓣链接 https://movie.douban.com/subject/30321309/
◎片  长 85分钟
◎导  演 阿加塔?亚历山大 Agata Alexander
◎编  剧 阿加塔?亚历山大 Agata Alexander / 杰森?凯 Jason Kaye / 罗布·迈克尔森 Rob Michaelson
◎主  演 安娜贝拉·沃丽丝 Annabelle Wallis
       爱丽丝·伊芙 Alice Eve
       托马斯·简 Thomas Jane
       亚历克斯·帕蒂弗 Alex Pettyfer
       鲁伯特·艾弗雷特 Rupert Everett
       帕特里克·施瓦辛格 Patrick Schwarzenegger
       夏洛特·勒·邦 Charlotte Le Bon
       凯莉·班伯里 Kylie Bunbury
       本尼迪克特·萨缪尔 Benedict Samuel
       托马斯·科特 Tomasz Kot
       加朗斯·马里利埃 Garance Marillier
       托妮·伽恩 Toni Garrn
       安娜贝尔·穆利恩 Annabel Mullion
       理查德·帕蒂弗 Richard Pettyfer
◎标  签 科幻 | 美国 | 2021 | 美国电影 | 亚历克斯·帕蒂弗 | 爱丽丝·伊芙 | 鲁伯特·艾弗雷特 | 詹姆斯·达西
◎简  介


  亚历克斯·帕蒂弗(《关键第四号》《魔力麦克》)、夏洛特·勒·邦(《云中行走》《伊夫圣罗兰传》)加盟科幻新片《警告》(Warning),詹姆斯·达西、劳拉·哈里尔、梅纳·马苏德(《阿拉丁》)参演,艺术家Agata Alexander献出电影长片导演首秀,并与Rob Michaelson、Jason Kaye编写剧本,冬季罗马尼亚开拍。
  
  该片气概类似《黑镜》,设定在不远的未来的地球上,探讨当截然分歧的生活发生碰撞时,孤独、灭亡和生命的意义。
  1. Video
  2. ID                                       : 1
  3. Format                                   : AVC
  4. Format/Info                              : Advanced Video Codec
  5. Format profile                           : [email protected]
  6. Format settings                          : CABAC / 5 Ref Frames
  7. Format settings, CABAC                   : Yes
  8. Format settings, Reference frames        : 5 frames
  9. Codec ID                                 : V_MPEG4/ISO/AVC
  10. Duration                                 : 1 h 25 min
  11. Bit rate                                 : 8 992 kb/s
  12. Width                                    : 1 920 pixels
  13. Height                                   : 808 pixels
  14. Display aspect ratio                     : 2.40:1
  15. Frame rate mode                          : Constant
  16. Frame rate                               : 23.976 (24000/1001/189150) FPS
  17. Color space                              : YUV
  18. Chroma subsampling                       : 4:2:0
  19. Bit depth                                : 8 bits
  20. Scan type                                : Progressive
  21. Bits/(Pixel*Frame)                       : 0.242
  22. Stream size                              : 5.38 GiB (74%)
  23. Writing library                          : x264 core 157 r2938 2b00a84 [email protected] Mod
  24. Encoding settings                        : cabac=1 / ref=5 / deblock=1:-3:-3 / analyse=0x3:0x133 / me=umh / subme=10 / psy=1 / psy_rd=1.05:0.00 / mixed_ref=1 / me_range=32 / chroma_me=1 / trellis=2 / 8x8dct=1 / cqm=0 / deadzone=21,11 / fast_pskip=0 / chroma_qp_offset=-2 / threads=12 / lookahead_threads=2 / sliced_threads=0 / nr=0 / decimate=0 / interlaced=0 / bluray_compat=0 / constrained_intra=0 / bframes=8 / b_pyramid=2 / b_adapt=2 / b_bias=0 / direct=3 / weightb=1 / open_gop=0 / weightp=2 / keyint=250 / keyint_min=24 / scenecut=40 / intra_refresh=0 / rc_lookahead=250 / rc=crf / mbtree=0 / crf=16.8 / qcomp=0.60 / qpmin=0 / qpmax=69 / qpstep=4 / vbv_maxrate=62500 / vbv_bufsize=78125 / crf_max=0.0 / nal_hrd=none / filler=0 / ip_ratio=1.30 / pb_ratio=1.20 / aq=3:0.80
  25. Language                                 : English
  26. Default                                  : Yes
  27. Forced                                   : No
  28. Color range                              : Limited
  29. Color primaries                          : BT.709
  30. Matrix coefficients                      : BT.709
  31. Audio
  32. ID                                       : 2
  33. Format                                   : DTS XLL
  34. Format/Info                              : Digital Theater Systems
  35. Commercial name                          : DTS-HD Master Audio
  36. Codec ID                                 : A_DTS
  37. Duration                                 : 1 h 25 min
  38. Bit rate mode                            : Variable
  39. Bit rate                                 : 3 119 kb/s
  40. Channel(s)                               : 6 channels
  41. Channel layout                           : C L R Ls Rs LFE
  42. Sampling rate                            : 48.0 kHz
  43. Frame rate                               : 93.750 FPS (512 SPF)
  44. Bit depth                                : 24 bits
  45. Compression mode                         : Lossless
  46. Stream size                              : 1.86 GiB (26%)
  47. Language                                 : English
  48. Default                                  : Yes
  49. Forced                                   : No
  50. Text #1
  51. ID                                       : 3
  52. Format                                   : UTF-8
  53. Codec ID                                 : S_TEXT/UTF8
  54. Codec ID/Info                            : UTF-8 Plain Text
  55. Duration                                 : 1 h 18 min
  56. Bit rate                                 : 46 b/s
  57. Count of elements                        : 830
  58. Stream size                              : 26.5 KiB (0%)
  59. Title                                    : SRT
  60. Language                                 : English
  61. Default                                  : Yes
  62. Forced                                   : No
  63. Text #2
  64. ID                                       : 4
  65. Format                                   : PGS
  66. Muxing mode                              : zlib
  67. Codec ID                                 : S_HDMV/PGS
  68. Codec ID/Info                            : Picture based subtitle format used on BDs/HD-DVDs
  69. Duration                                 : 1 h 18 min
  70. Bit rate                                 : 33.4 kb/s
  71. Count of elements                        : 2046
  72. Stream size                              : 18.8 MiB (0%)
  73. Language                                 : English
  74. Default                                  : No
  75. Forced                                   : No
  76. Menu
  77. 00:00:00.000                             : en:Chapter 01
  78. 00:04:18.633                             : en:Chapter 02
  79. 00:08:46.985                             : en:Chapter 03
  80. 00:13:54.667                             : en:Chapter 04
  81. 00:19:49.855                             : en:Chapter 05
  82. 00:23:20.566                             : en:Chapter 06
  83. 00:26:17.826                             : en:Chapter 07
  84. 00:30:25.365                             : en:Chapter 08
  85. 00:35:05.520                             : en:Chapter 09
  86. 00:43:54.674                             : en:Chapter 10
  87. 00:48:34.537                             : en:Chapter 11
  88. 00:54:31.351                             : en:Chapter 12
  89. 00:59:13.216                             : en:Chapter 13
  90. 01:04:56.351                             : en:Chapter 14
  91. 01:13:07.466                             : en:Chapter 15
  92. 01:17:13.629                             : en:Chapter 16
复制代码







                                       
                                       

                                       
                                       
                                       




回复

使用道具 举报

懒得打字嘛,点击右侧快捷回复 【右侧内容,后台自定义】
您需要登录后才可以回帖 登录 | 立即加入

本版积分规则

Archiver|小黑屋| 蓝光电影网 |网站地图

Copyright © 2021 Comsenz Inc. Powered by 蓝光电影网

蓝光电影网

本站内容由用户自主分享和转载自互联网,转载目的在于传递更多信息,并不代表本网赞同其观点和对其真实性负责。

如有侵权、违反国家法律政策行为,请联系我们,我们会第一时间及时清除和处理!

举报反馈邮箱:[email protected]

快速回复 返回顶部 返回列表