找回密码

蓝光电影网

查看: 946|回复: 3

[2160p-WEB] 之后3 After.We.Fell.2021.2160p.WEB.H265-SLOT 8.53GB

[复制链接]
蓝光币
682
发表于 2021-10-22 12:07:05 | 显示全部楼层 |阅读模式


◎译  名 以后3/After 3/После падения
◎片  名 After We Fell
◎年  代 2021
◎产  地 美国,保加利亚
◎类  别 剧情
◎语  言 英语
◎上映日期 2021-09-01(芬兰) / 2021-09-03(保加利亚)
◎豆瓣评分 5.4/10 from 178 users
◎豆瓣链接 https://movie.douban.com/subject/35221424/
◎片  长 99分钟
◎导  演 卡斯蒂利·兰登 Castille Landon
◎编  剧 安娜·托德 Anna Todd / 莎伦·索博伊尔 Sharon Soboil
◎主  演 约瑟芬·兰福德 Josephine Langford
       赫洛·费因斯-提芬 Hero Fiennes Tiffin
       路易丝·隆巴德 Louise Lombard
       钱斯·佩尔多莫 Chance Perdomo
       罗伯·艾斯特斯 Rob Estes
       阿莉尔·凯贝尔 Arielle Kebbel
       史蒂芬·莫耶 Stephen Moyer
       米拉·索维诺 Mira Sorvino
       弗朗西丝·特纳 Frances Turner
       基亚娜·马德拉 Kiana Madeira
       卡特·詹金斯 Carter Jenkins
       阿塔纳斯·斯雷布雷夫 Atanas Srebrev
       安娜·伊万娜娃 Ana Ivanova
◎标  签 恋爱 | 欧美电影 | after3 | 电影 | 帅哥美男 | 校园 | 青春 | 美国
◎简  介


  [以后3]报告Tessa的生活起头变得扑朔迷离,一切都不像她设想的那样。她唯一可以依靠的人Hardin发现她一向守旧的庞大奥秘时,Hardin很是愤慨。而他不但没有了解,反而搞起了破坏。
  1. Video
  2. ID                                       : 1
  3. Format                                   : HEVC
  4. Format/Info                              : High Efficiency Video Coding
  5. Format profile                           : Main [email protected]@High
  6. Codec ID                                 : V_MPEGH/ISO/HEVC
  7. Duration                                 : 1 h 38 min
  8. Bit rate                                 : 12.0 Mb/s
  9. Width                                    : 3 840 pixels
  10. Height                                   : 1 744 pixels
  11. Display aspect ratio                     : 2.2:1
  12. Frame rate mode                          : Constant
  13. Frame rate                               : 23.976 FPS
  14. Color space                              : YUV
  15. Chroma subsampling                       : 4:2:0
  16. Bit depth                                : 10 bits
  17. Bits/(Pixel*Frame)                       : 0.075
  18. Stream size                              : 8.26 GiB (97%)
  19. Default                                  : Yes
  20. Forced                                   : No
  21. Color range                              : Limited
  22. Color primaries                          : BT.709
  23. Transfer characteristics                 : BT.709
  24. Matrix coefficients                      : BT.709

  25. Audio
  26. ID                                       : 2
  27. Format                                   : AC-3
  28. Format/Info                              : Audio Coding 3
  29. Commercial name                          : Dolby Digital
  30. Codec ID                                 : A_AC3
  31. Duration                                 : 1 h 38 min
  32. Bit rate mode                            : Constant
  33. Bit rate                                 : 384 kb/s
  34. Channel(s)                               : 6 channels
  35. Channel layout                           : L R C LFE Ls Rs
  36. Sampling rate                            : 48.0 kHz
  37. Frame rate                               : 31.250 FPS (1536 SPF)
  38. Compression mode                         : Lossy
  39. Stream size                              : 271 MiB (3%)
  40. Title                                    : English
  41. Language                                 : English
  42. Service kind                             : Complete Main
  43. Default                                  : Yes
  44. Forced                                   : No

  45. Text #1
  46. ID                                       : 3
  47. Format                                   : UTF-8
  48. Codec ID                                 : S_TEXT/UTF8
  49. Codec ID/Info                            : UTF-8 Plain Text
  50. Duration                                 : 1 h 37 min
  51. Bit rate                                 : 61 b/s
  52. Count of elements                        : 1565
  53. Stream size                              : 43.6 KiB (0%)
  54. Title                                    : English (SDH)
  55. Language                                 : English
  56. Default                                  : No
  57. Forced                                   : No

  58. Text #2
  59. ID                                       : 4
  60. Format                                   : UTF-8
  61. Codec ID                                 : S_TEXT/UTF8
  62. Codec ID/Info                            : UTF-8 Plain Text
  63. Duration                                 : 1 h 34 min
  64. Bit rate                                 : 64 b/s
  65. Count of elements                        : 1370
  66. Stream size                              : 44.4 KiB (0%)
  67. Title                                    : French (SDH)
  68. Language                                 : French
  69. Default                                  : No
  70. Forced                                   : No

  71. Text #3
  72. ID                                       : 5
  73. Format                                   : UTF-8
  74. Codec ID                                 : S_TEXT/UTF8
  75. Codec ID/Info                            : UTF-8 Plain Text
  76. Duration                                 : 1 h 33 min
  77. Bit rate                                 : 0 b/s
  78. Count of elements                        : 6
  79. Stream size                              : 103 Bytes (0%)
  80. Title                                    : French (Forced)
  81. Language                                 : French
  82. Default                                  : No
  83. Forced                                   : No

  84. Menu
  85. 00:00:00.000                             : :Scene 1
  86. 00:10:43.935                             : :Scene 2
  87. 00:21:14.315                             : :Scene 3
  88. 00:33:10.323                             : :Scene 4
  89. 00:45:02.160                             : :Scene 5
  90. 00:57:39.209                             : :Scene 6
  91. 01:09:55.195                             : :Scene 7
  92. 01:22:06.009                             : :Scene 8
  93. 01:34:42.515                             : :Scene 9
复制代码




                                       
                                       

                                       
                                       
                                       




回复

使用道具 举报

蓝光币
636
发表于 2021-10-23 15:58:49 | 显示全部楼层
不错,收下了。
回复 支持 反对

使用道具 举报

蓝光币
636
发表于 2021-10-25 10:05:19 | 显示全部楼层
不错,收下了。
回复 支持 反对

使用道具 举报

蓝光币
228
发表于 2021-10-25 21:15:47 | 显示全部楼层
不错喔···
回复 支持 反对

使用道具 举报

懒得打字嘛,点击右侧快捷回复 【右侧内容,后台自定义】
您需要登录后才可以回帖 登录 | 立即加入

本版积分规则

Archiver|小黑屋| 蓝光电影网 |网站地图

Copyright © 2021 Comsenz Inc. Powered by 蓝光电影网

蓝光电影网

本站内容由用户自主分享和转载自互联网,转载目的在于传递更多信息,并不代表本网赞同其观点和对其真实性负责。

如有侵权、违反国家法律政策行为,请联系我们,我们会第一时间及时清除和处理!

举报反馈邮箱:[email protected]

快速回复 返回顶部 返回列表