找回密码

蓝光电影网

查看: 1560|回复: 12

[2160p-WEB] 沙丘/沙丘瀚战 Dune.2021.2160p.HMAX.WEB-DL.x265.10bit.HDR.DDP5.1.Atmos-CM 20.32GB

[复制链接]
蓝光币
682
发表于 2021-10-22 12:02:39 | 显示全部楼层 |阅读模式


◎译  名 沙丘/沙丘瀚战(港)
◎片  名 Dune
◎年  代 2021
◎产  地 美国
◎类  别 剧情 / 科幻 / 冒险
◎语  言 英语
◎上映日期 2021-09-03(威尼斯电影节) / 2021-09-11(多伦多电影节) / 2021-10-22(美国/中国大陆)
◎豆瓣评分 7.5/10 from 20756 users
◎豆瓣链接 https://movie.douban.com/subject/3001114/
◎片  长 156分钟
◎导  演 丹尼斯·维伦纽瓦 Denis Villeneuve
◎编  剧 丹尼斯·维伦纽瓦 Denis Villeneuve / 乔·斯派茨 Jon Spaihts / 艾瑞克·罗斯 Eric Roth / 弗兰克·赫伯特 Frank Herbert
◎主  演 蒂莫西·柴勒梅德 Timothée Chalamet
       丽贝卡·弗格森 Rebecca Ferguson
       奥斯卡·伊萨克 Oscar Isaac
       戴夫·巴蒂斯塔 Dave Bautista
       赞达亚 Zendaya
       杰森·莫玛 Jason Momoa
       乔什·布洛林 Josh Brolin
       哈维尔·巴登 Javier Bardem
       斯特兰·斯卡斯加德 Stellan Skarsg?rd
       夏洛特·兰普林 Charlotte Rampling
       大卫·达斯马齐连 David Dastmalchian
       莎伦·邓肯-布鲁斯特 Sharon Duncan-Brewster
       斯蒂芬·亨德森 Stephen Henderson
       迈克尔·纳尔多内 Michael Nardone
       张震 Chen Chang
       巴布斯·奥卢桑莫昆 Babs Olusanmokun
       Oliver Ryan Oliver Ryan
       查理·罗尔斯 Charlie Rawes
       格洛里亚·奥比安约 Gloria Obianyo
       保罗·布林 Paul Bullion
       比约恩·弗赖贝格 Bj?rn Freiberg
◎标  签 科幻 | 沙丘 | 美国 | 2021 | 奇异 | 冒险 | 典范 | 剧情
◎简  介


  电影《沙丘》为观众显现了一段奥秘而动人至深的豪杰之旅。天赋异禀的少年保罗·厄崔迪被命运指引,为了保卫自己的家属和群众,决心前往浩大宇宙间最危险的星球,开启一场惊心动魄的冒险。与此同时,各路势力为了掠取这颗星球上一种可以开释人类最大潜力的珍贵资本而纷纷加入疆场。终极,惟有那些可以克服心里恐惧的人材能保存下去。
◎获奖情况
  第7届豆瓣电影年度榜单 ?(2020)
  最值得期待的外语电影(提名)
  
  第6届豆瓣电影年度榜单 ?(2019)
  最值得期待的外语电影(提名)
  1. Video
  2. ID                                       : 1
  3. Format                                   : HEVC
  4. Format/Info                              : High Efficiency Video Coding
  5. Format profile                           : Main [email protected]@Main
  6. HDR format                               : SMPTE ST 2086, HDR10 compatible
  7. Codec ID                                 : V_MPEGH/ISO/HEVC
  8. Duration                                 : 2 h 35 min
  9. Bit rate                                 : 17.9 Mb/s
  10. Width                                    : 3 840 pixels
  11. Height                                   : 2 160 pixels
  12. Display aspect ratio                     : 16:9
  13. Frame rate mode                          : Constant
  14. Frame rate                               : 23.976 (24000/1001/189150) FPS
  15. Color space                              : YUV
  16. Chroma subsampling                       : 4:2:0
  17. Bit depth                                : 10 bits
  18. Bits/(Pixel*Frame)                       : 0.090
  19. Stream size                              : 19.5 GiB (96%)
  20. Writing library                          : x265 3.4hy:[Linux][GCC 7.5.0][64 bit] 10bit
  21. Encoding settings                        : cpuid=1111039 / frame-threads=1 / wpp / no-pmode / no-pme / no-psnr / no-ssim / log-level=2 / input-csp=1 / input-res=3840x2160 / interlace=0 / total-frames=0 / level-idc=0 / high-tier=1 / uhd-bd=0 / ref=4 / no-allow-non-conformance / repeat-headers / annexb / no-aud / no-hrd / info / hash=0 / no-temporal-layers / no-open-gop / min-keyint=96 / keyint=96 / gop-lookahead=0 / bframes=3 / b-adapt=2 / b-pyramid / bframe-bias=0 / rc-lookahead=25 / lookahead-slices=4 / scenecut=40 / hist-scenecut=0 / radl=0 / no-splice / no-intra-refresh / ctu=64 / min-cu-size=8 / rect / no-amp / max-tu-size=32 / tu-inter-depth=1 / tu-intra-depth=1 / limit-tu=0 / rdoq-level=2 / dynamic-rd=0.00 / no-ssim-rd / signhide / no-tskip / nr-intra=0 / nr-inter=0 / no-constrained-intra / strong-intra-smoothing / max-merge=3 / limit-refs=3 / limit-modes / me=3 / subme=3 / merange=57 / temporal-mvp / no-frame-dup / no-hme / weightp / no-weightb / no-analyze-src-pics / deblock=0:0 / sao / no-sao-non-deblock / rd=4 / selective-sao=4 / no-early-skip / rskip / no-fast-intra / no-tskip-fast / no-cu-lossless / no-b-intra / no-splitrd-skip / rdpenalty=0 / psy-rd=2.00 / psy-rdoq=1.00 / no-rd-refine / no-lossless / cbqpoffs=0 / crqpoffs=0 / rc=abr / bitrate=18000 / qcomp=0.60 / qpstep=4 / stats-write=0 / stats-read=2 / cplxblur=20.0 / qblur=0.5 / vbv-maxrate=24500 / vbv-bufsize=24500 / vbv-init=0.6 / vbv-end=0.6 / vbv-end-fr-adj=0.0 / ipratio=1.40 / pbratio=1.30 / aq-mode=2 / aq-strength=1.00 / cutree / zone-count=0 / no-strict-cbr / qg-size=32 / no-rc-grain / qpmax=69 / qpmin=0 / no-const-vbv / sar=0 / overscan=0 / videoformat=5 / range=0 / colorprim=9 / transfer=16 / colormatrix=9 / chromaloc=0 / display-window=0 / master-display=G(13250,34500)B(7500,3000)R(34000,16000)WP(15635,16450)L(40000000,50) / cll=787,239 / min-luma=0 / max-luma=1023 / log2-max-poc-lsb=8 / vui-timing-info / vui-hrd-info / no-concatenation / slices=1 / no-opt-qp-pps / no-opt-ref-list-length-pps / no-multi-pass-opt-rps / scenecut-bias=0.05 / hist-threshold=0.01 / no-opt-cu-delta-qp / no-aq-motion / hdr10 / no-hdr10-opt / no-dhdr10-opt / no-idr-recovery-sei / analysis-reuse-level=0 / analysis-save-reuse-level=0 / analysis-load-reuse-level=0 / scale-factor=0 / refine-intra=0 / refine-inter=0 / refine-mv=1 / refine-ctu-distortion=0 / no-limit-sao / ctu-info=0 / no-lowpass-dct / refine-analysis-type=0 / copy-pic=1 / max-ausize-factor=1.0 / no-dynamic-refine / no-single-sei / no-hevc-aq / no-svt / no-field / qp-adaptation-range=1.00 / no-scenecut-aware-qpconformance-window-offsets / right=0 / bottom=0 / decoder-max-rate=0
  22. Default                                  : Yes
  23. Forced                                   : No
  24. Color range                              : Limited
  25. Color primaries                          : BT.2020
  26. Transfer characteristics                 : PQ
  27. Matrix coefficients                      : BT.2020 non-constant
  28. Mastering display color primaries        : Display P3
  29. Mastering display luminance              : min: 0.0050 cd/m2, max: 4000 cd/m2
  30. Maximum Content Light Level              : 787 cd/m2
  31. Maximum Frame-Average Light Level        : 239 cd/m2

  32. Audio
  33. ID                                       : 2
  34. Format                                   : E-AC-3 JOC
  35. Format/Info                              : Enhanced AC-3 with Joint Object Coding
  36. Commercial name                          : Dolby Digital Plus with Dolby Atmos
  37. Codec ID                                 : A_EAC3
  38. Duration                                 : 2 h 35 min
  39. Bit rate mode                            : Constant
  40. Bit rate                                 : 768 kb/s
  41. Channel(s)                               : 6 channels
  42. Channel layout                           : L R C LFE Ls Rs
  43. Sampling rate                            : 48.0 kHz
  44. Frame rate                               : 31.250 FPS (1536 SPF)
  45. Compression mode                         : Lossy
  46. Stream size                              : 854 MiB (4%)
  47. Title                                    : English
  48. Language                                 : English
  49. Service kind                             : Complete Main
  50. Default                                  : No
  51. Forced                                   : No
  52. Complexity index                         : 16
  53. Number of dynamic objects                : 15
  54. Bed channel count                        : 1 channel
  55. Bed channel configuration                : LFE

  56. Text #1
  57. ID                                       : 3
  58. Format                                   : UTF-8
  59. Codec ID                                 : S_TEXT/UTF8
  60. Codec ID/Info                            : UTF-8 Plain Text
  61. Duration                                 : 2 h 25 min
  62. Bit rate                                 : 31 b/s
  63. Count of elements                        : 1353
  64. Stream size                              : 34.1 KiB (0%)
  65. Title                                    : English
  66. Language                                 : English
  67. Default                                  : No
  68. Forced                                   : No

  69. Text #2
  70. ID                                       : 4
  71. Format                                   : UTF-8
  72. Codec ID                                 : S_TEXT/UTF8
  73. Codec ID/Info                            : UTF-8 Plain Text
  74. Duration                                 : 2 h 26 min
  75. Bit rate                                 : 41 b/s
  76. Count of elements                        : 1724
  77. Stream size                              : 44.4 KiB (0%)
  78. Title                                    : English [SDH]
  79. Language                                 : English
  80. Default                                  : No
  81. Forced                                   : No

  82. Text #3
  83. ID                                       : 5
  84. Format                                   : UTF-8
  85. Codec ID                                 : S_TEXT/UTF8
  86. Codec ID/Info                            : UTF-8 Plain Text
  87. Duration                                 : 2 h 16 min
  88. Bit rate                                 : 1 b/s
  89. Count of elements                        : 50
  90. Stream size                              : 1.42 KiB (0%)
  91. Title                                    : Spanish
  92. Language                                 : Spanish
  93. Default                                  : No
  94. Forced                                   : No

  95. Text #4
  96. ID                                       : 6
  97. Format                                   : UTF-8
  98. Codec ID                                 : S_TEXT/UTF8
  99. Codec ID/Info                            : UTF-8 Plain Text
  100. Duration                                 : 2 h 16 min
  101. Bit rate                                 : 1 b/s
  102. Count of elements                        : 50
  103. Stream size                              : 1.42 KiB (0%)
  104. Title                                    : Spanish [SDH]
  105. Language                                 : Spanish
  106. Default                                  : No
  107. Forced                                   : No
复制代码




                                       
                                       

                                       
                                       
                                       




回复

使用道具 举报

蓝光币
12
发表于 2021-10-22 13:23:34 | 显示全部楼层
不错,收下了。
回复 支持 反对

使用道具 举报

蓝光币
2
发表于 2021-10-22 13:30:01 | 显示全部楼层
楼主发贴辛苦了,谢谢楼主分享!我觉得蓝光电影网是注册对了!
回复 支持 反对

使用道具 举报

蓝光币
2
发表于 2021-10-22 13:35:12 | 显示全部楼层

这东西我收了!谢谢楼主!蓝光电影网真好!
回复 支持 反对

使用道具 举报

蓝光币
342
发表于 2021-10-22 14:15:32 | 显示全部楼层
这么快就有蓝光了?刚上映哦
回复 支持 反对

使用道具 举报

蓝光币
11
发表于 2021-10-22 14:30:10 | 显示全部楼层
楼主发贴辛苦了,谢谢楼主分享!我觉得蓝光电影网是注册对了!
回复 支持 反对

使用道具 举报

蓝光币
45
发表于 2021-10-22 15:19:38 来自手机 | 显示全部楼层
谢谢分享
回复

使用道具 举报

蓝光币
94
发表于 2021-10-22 17:07:04 | 显示全部楼层
谢谢分享 但还是慢了··
回复 支持 反对

使用道具 举报

蓝光币
43
发表于 2021-10-22 17:18:30 | 显示全部楼层
这是个什么电影哦
回复 支持 反对

使用道具 举报

蓝光币
0
发表于 2021-10-22 18:04:16 | 显示全部楼层
求个字幕~~~~~~~~
回复

使用道具 举报

懒得打字嘛,点击右侧快捷回复 【右侧内容,后台自定义】
您需要登录后才可以回帖 登录 | 立即加入

本版积分规则

Archiver|小黑屋| 蓝光电影网 |网站地图

Copyright © 2021 Comsenz Inc. Powered by 蓝光电影网

蓝光电影网

本站内容由用户自主分享和转载自互联网,转载目的在于传递更多信息,并不代表本网赞同其观点和对其真实性负责。

如有侵权、违反国家法律政策行为,请联系我们,我们会第一时间及时清除和处理!

举报反馈邮箱:[email protected]

快速回复 返回顶部 返回列表