找回密码

蓝光电影网

查看: 112|回复: 0

[喜剧] 神奇手机/地狱手机 Hellphone.2007.FRENCH.1080p.NF.WEBRip.DDP5.1.x264-tobias 4.34GB

[复制链接]
蓝光币
682
发表于 2021-10-22 14:08:15 | 显示全部楼层 |阅读模式


◎译  名 奇异手机/天堂手机
◎片  名 Hellphone
◎年  代 2007
◎产  地 法国
◎类  别 笑剧 / 悬疑 / 奇异
◎语  言 法语
◎上映日期 2007-03-28
◎豆瓣评分 6.2/10 from 2574 users
◎豆瓣链接 https://movie.douban.com/subject/2018254/
◎片  长 95分钟
◎导  演 詹姆斯·胡特 James Huth
◎编  剧 让-巴普蒂斯特·安德烈 Jean-Baptiste Andrea / 詹姆斯·胡特 James Huth
◎主  演 让-巴蒂斯特·莫尼耶 Jean-Baptiste Maunier
       珍妮芙·德克 Jennifer Decker
       茱迪丝·谢拉 Judith Chemla
       弗拉基米尔·康斯金尼 Vladimir Consigny
       寇朵拉·雷耶尔 Cordula Reyer
       兰尼克·加特里 Lannick Gautry
◎标  签 法国 | 法国电影 | 青春 | 奇异 | 笑剧 | Jean-BaptisteMaunier | 科幻 | 可骇
◎简  介


  机遇偶合当中,高中男生希德(尚-巴堤·莫里耶 Jean-Baptiste Maunier 饰)获得了一部奇异的手机,他可以操纵手机,对他看不扎眼的人停止恶作剧。但好景不长,很快希德便发现,那些恶作剧并没有概况看上去的那末简单,它甚至致使了两起灭亡事务,恐惧当中,希德决议丢掉手机。
  
  没想到,这个奇异的手机并没有那末好摆脱,在希德将它抛弃的隔天,它又回到了希德的身旁,而且奉告希德,它决议将他暗恋的女生安琪(珍妮芙·德克 Jennifer Decker 饰)杀死。为了庇护心爱的人,希德和奇异手机成为了仇敌。面临动手机强大而又残暴的操纵电波控制他人的特异功用眼前,在出现了一个又一个牺牲者以后,希德和安琪终极可以逃诞生天吗?
  1. Video
  2. ID                                       : 1
  3. Format                                   : AVC
  4. Format/Info                              : Advanced Video Codec
  5. Format profile                           : [email protected]
  6. Format settings                          : CABAC / 3 Ref Frames
  7. Format settings, CABAC                   : Yes
  8. Format settings, Reference frames        : 3 frames
  9. Codec ID                                 : V_MPEG4/ISO/AVC
  10. Duration                                 : 1 h 39 min
  11. Bit rate mode                            : Variable
  12. Bit rate                                 : 5 620 kb/s
  13. Maximum bit rate                         : 8 430 kb/s
  14. Width                                    : 1 920 pixels
  15. Height                                   : 1 080 pixels
  16. Display aspect ratio                     : 16:9
  17. Frame rate mode                          : Constant
  18. Frame rate                               : 24.000 FPS
  19. Color space                              : YUV
  20. Chroma subsampling                       : 4:2:0
  21. Bit depth                                : 8 bits
  22. Scan type                                : Progressive
  23. Bits/(Pixel*Frame)                       : 0.113
  24. Stream size                              : 3.89 GiB (90%)
  25. Writing library                          : x264 core 148 r2722 1b0121b
  26. Encoding settings                        : cabac=1 / ref=3 / deblock=1:0:0 / analyse=0x1:0x111 / me=umh / subme=10 / psy=1 / psy_rd=1.00:0.00 / mixed_ref=1 / me_range=24 / chroma_me=1 / trellis=2 / 8x8dct=0 / cqm=0 / deadzone=21,11 / fast_pskip=1 / chroma_qp_offset=-2 / threads=8 / lookahead_threads=1 / sliced_threads=0 / nr=0 / decimate=1 / interlaced=0 / bluray_compat=0 / stitchable=1 / constrained_intra=0 / bframes=2 / b_pyramid=0 / b_adapt=2 / b_bias=0 / direct=3 / weightb=1 / open_gop=0 / weightp=2 / keyint=48 / keyint_min=25 / scenecut=0 / intra_refresh=0 / rc_lookahead=48 / rc=2pass / mbtree=1 / bitrate=5620 / ratetol=1.0 / qcomp=0.50 / qpmin=6 / qpmax=51 / qpstep=4 / cplxblur=20.0 / qblur=0.5 / vbv_maxrate=8430 / vbv_bufsize=11240 / nal_hrd=vbr / filler=0 / ip_ratio=1.40 / aq=1:1.00
  27. Default                                  : Yes
  28. Forced                                   : No
  29. Audio
  30. ID                                       : 2
  31. Format                                   : E-AC-3
  32. Format/Info                              : Enhanced AC-3
  33. Commercial name                          : Dolby Digital Plus
  34. Codec ID                                 : A_EAC3
  35. Duration                                 : 1 h 39 min
  36. Bit rate mode                            : Constant
  37. Bit rate                                 : 640 kb/s
  38. Channel(s)                               : 6 channels
  39. Channel layout                           : L R C LFE Ls Rs
  40. Sampling rate                            : 48.0 kHz
  41. Frame rate                               : 31.250 FPS (1536 SPF)
  42. Compression mode                         : Lossy
  43. Stream size                              : 455 MiB (10%)
  44. Title                                    : French
  45. Language                                 : French
  46. Service kind                             : Complete Main
  47. Default                                  : Yes
  48. Forced                                   : No
  49. Text #1
  50. ID                                       : 3
  51. Format                                   : UTF-8
  52. Codec ID                                 : S_TEXT/UTF8
  53. Codec ID/Info                            : UTF-8 Plain Text
  54. Duration                                 : 1 h 36 min
  55. Bit rate                                 : 46 b/s
  56. Count of elements                        : 1059
  57. Stream size                              : 32.9 KiB (0%)
  58. Title                                    : English
  59. Language                                 : English
  60. Default                                  : Yes
  61. Forced                                   : No
  62. Text #2
  63. ID                                       : 4
  64. Format                                   : UTF-8
  65. Codec ID                                 : S_TEXT/UTF8
  66. Codec ID/Info                            : UTF-8 Plain Text
  67. Duration                                 : 1 h 36 min
  68. Bit rate                                 : 44 b/s
  69. Count of elements                        : 1076
  70. Stream size                              : 31.4 KiB (0%)
  71. Title                                    : Danish
  72. Language                                 : Danish
  73. Default                                  : No
  74. Forced                                   : No
  75. Text #3
  76. ID                                       : 5
  77. Format                                   : UTF-8
  78. Codec ID                                 : S_TEXT/UTF8
  79. Codec ID/Info                            : UTF-8 Plain Text
  80. Duration                                 : 1 h 36 min
  81. Bit rate                                 : 46 b/s
  82. Count of elements                        : 1053
  83. Stream size                              : 33.3 KiB (0%)
  84. Title                                    : Finnish
  85. Language                                 : Finnish
  86. Default                                  : No
  87. Forced                                   : No
  88. Text #4
  89. ID                                       : 6
  90. Format                                   : UTF-8
  91. Codec ID                                 : S_TEXT/UTF8
  92. Codec ID/Info                            : UTF-8 Plain Text
  93. Duration                                 : 1 h 39 min
  94. Bit rate                                 : 50 b/s
  95. Count of elements                        : 1435
  96. Stream size                              : 36.9 KiB (0%)
  97. Title                                    : French
  98. Language                                 : French
  99. Default                                  : No
  100. Forced                                   : No
  101. Text #5
  102. ID                                       : 7
  103. Format                                   : UTF-8
  104. Codec ID                                 : S_TEXT/UTF8
  105. Codec ID/Info                            : UTF-8 Plain Text
  106. Duration                                 : 1 h 36 min
  107. Bit rate                                 : 47 b/s
  108. Count of elements                        : 1075
  109. Stream size                              : 33.8 KiB (0%)
  110. Title                                    : Norwegian Bokmal
  111. Language                                 : Norwegian Bokmal
  112. Default                                  : No
  113. Forced                                   : No
  114. Text #6
  115. ID                                       : 8
  116. Format                                   : UTF-8
  117. Codec ID                                 : S_TEXT/UTF8
  118. Codec ID/Info                            : UTF-8 Plain Text
  119. Duration                                 : 1 h 36 min
  120. Bit rate                                 : 50 b/s
  121. Count of elements                        : 1075
  122. Stream size                              : 35.6 KiB (0%)
  123. Title                                    : Portuguese
  124. Language                                 : Portuguese
  125. Default                                  : No
  126. Forced                                   : No
  127. Text #7
  128. ID                                       : 9
  129. Format                                   : UTF-8
  130. Codec ID                                 : S_TEXT/UTF8
  131. Codec ID/Info                            : UTF-8 Plain Text
  132. Duration                                 : 1 h 36 min
  133. Bit rate                                 : 47 b/s
  134. Count of elements                        : 1075
  135. Stream size                              : 33.9 KiB (0%)
  136. Title                                    : Swedish
  137. Language                                 : Swedish
  138. Default                                  : No
  139. Forced                                   : No
复制代码







                                       
                                       

                                       
                                       
                                       




回复

使用道具 举报

懒得打字嘛,点击右侧快捷回复 【右侧内容,后台自定义】
您需要登录后才可以回帖 登录 | 立即加入

本版积分规则

Archiver|小黑屋| 蓝光电影网 |网站地图

Copyright © 2021 Comsenz Inc. Powered by 蓝光电影网

蓝光电影网

本站内容由用户自主分享和转载自互联网,转载目的在于传递更多信息,并不代表本网赞同其观点和对其真实性负责。

如有侵权、违反国家法律政策行为,请联系我们,我们会第一时间及时清除和处理!

举报反馈邮箱:[email protected]

快速回复 返回顶部 返回列表