找回密码

蓝光电影网

查看: 382|回复: 0

[剧情] 沙丘/沙丘瀚战 Dune.2021.1080p.WEBRip.x264-RARBG 2.96GB

[复制链接]
蓝光币
682
发表于 2021-10-22 15:16:24 | 显示全部楼层 |阅读模式


◎译  名 沙丘/沙丘瀚战(港)
◎片  名 Dune
◎年  代 2021
◎产  地 美国
◎类  别 剧情 / 科幻 / 冒险
◎语  言 英语
◎上映日期 2021-09-03(威尼斯电影节) / 2021-09-11(多伦多电影节) / 2021-10-22(美国/中国大陆)
◎豆瓣评分 7.6/10 from 23448 users
◎豆瓣链接 https://movie.douban.com/subject/3001114/
◎片  长 156分钟
◎导  演 丹尼斯·维伦纽瓦 Denis Villeneuve
◎编  剧 丹尼斯·维伦纽瓦 Denis Villeneuve / 乔·斯派茨 Jon Spaihts / 艾瑞克·罗斯 Eric Roth / 弗兰克·赫伯特 Frank Herbert
◎主  演 蒂莫西·柴勒梅德 Timothée Chalamet
       丽贝卡·弗格森 Rebecca Ferguson
       奥斯卡·伊萨克 Oscar Isaac
       戴夫·巴蒂斯塔 Dave Bautista
       赞达亚 Zendaya
       杰森·莫玛 Jason Momoa
       乔什·布洛林 Josh Brolin
       哈维尔·巴登 Javier Bardem
       斯特兰·斯卡斯加德 Stellan Skarsg?rd
       夏洛特·兰普林 Charlotte Rampling
       大卫·达斯马齐连 David Dastmalchian
       莎伦·邓肯-布鲁斯特 Sharon Duncan-Brewster
       斯蒂芬·亨德森 Stephen Henderson
       迈克尔·纳尔多内 Michael Nardone
       张震 Chen Chang
       巴布斯·奥卢桑莫昆 Babs Olusanmokun
       Oliver Ryan Oliver Ryan
       查理·罗尔斯 Charlie Rawes
       格洛里亚·奥比安约 Gloria Obianyo
       保罗·布林 Paul Bullion
       比约恩·弗赖贝格 Bj?rn Freiberg
◎标  签 科幻 | 沙丘 | 美国 | 2021 | 奇异 | 冒险 | 典范 | 剧情
◎简  介


  电影《沙丘》为观众显现了一段奥秘而动人至深的豪杰之旅。天赋异禀的少年保罗·厄崔迪被命运指引,为了保卫自己的家属和群众,决心前往浩大宇宙间最危险的星球,开启一场惊心动魄的冒险。与此同时,各路势力为了掠取这颗星球上一种可以开释人类最大潜力的珍贵资本而纷纷加入疆场。终极,惟有那些可以克服心里恐惧的人材能保存下去。
◎获奖情况
  第7届豆瓣电影年度榜单 ?(2020)
  最值得期待的外语电影(提名)
  
  第6届豆瓣电影年度榜单 ?(2019)
  最值得期待的外语电影(提名)
  1. Video
  2. ID                                       : 1
  3. Format                                   : AVC
  4. Format/Info                              : Advanced Video Codec
  5. Format profile                           : [email protected]
  6. Format settings                          : CABAC / 4 Ref Frames
  7. Format settings, CABAC                   : Yes
  8. Format settings, Reference frames        : 4 frames
  9. Codec ID                                 : avc1
  10. Codec ID/Info                            : Advanced Video Coding
  11. Duration                                 : 2 h 35 min
  12. Bit rate                                 : 2 500 kb/s
  13. Width                                    : 1 920 pixels
  14. Height                                   : 800 pixels
  15. Display aspect ratio                     : 2.40:1
  16. Frame rate mode                          : Constant
  17. Frame rate                               : 23.976 (23976/1000/189150) FPS
  18. Color space                              : YUV
  19. Chroma subsampling                       : 4:2:0
  20. Bit depth                                : 8 bits
  21. Scan type                                : Progressive
  22. Bits/(Pixel*Frame)                       : 0.068
  23. Stream size                              : 2.71 GiB (92%)
  24. Writing library                          : x264 core 152 r2851M ba24899
  25. Encoding settings                        : cabac=1 / ref=4 / deblock=1:-1:-1 / analyse=0x3:0x113 / me=umh / subme=9 / psy=1 / psy_rd=1.00:0.15 / mixed_ref=1 / me_range=24 / chroma_me=1 / trellis=2 / 8x8dct=1 / cqm=0 / deadzone=21,11 / fast_pskip=1 / chroma_qp_offset=-3 / threads=16 / lookahead_threads=4 / sliced_threads=0 / nr=0 / decimate=1 / interlaced=0 / bluray_compat=0 / constrained_intra=0 / bframes=3 / b_pyramid=2 / b_adapt=2 / b_bias=0 / direct=3 / weightb=1 / open_gop=0 / weightp=2 / keyint=250 / keyint_min=25 / scenecut=40 / intra_refresh=0 / rc_lookahead=50 / rc=2pass / mbtree=1 / bitrate=2500 / ratetol=1.0 / qcomp=0.60 / qpmin=0 / qpmax=69 / qpstep=4 / cplxblur=20.0 / qblur=0.5 / vbv_maxrate=31250 / vbv_bufsize=31250 / nal_hrd=none / filler=0 / ip_ratio=1.40 / aq=3:1.00
  26. Encoded date                             : UTC 2021-10-21 23:42:23
  27. Tagged date                              : UTC 2021-10-21 23:42:23
  28. Codec configuration box                  : avcC
  29. Audio
  30. ID                                       : 2
  31. Format                                   : AAC LC
  32. Format/Info                              : Advanced Audio Codec Low Complexity
  33. Codec ID                                 : mp4a-40-2
  34. Duration                                 : 2 h 35 min
  35. Bit rate mode                            : Constant
  36. Bit rate                                 : 224 kb/s
  37. Channel(s)                               : 6 channels
  38. Channel layout                           : C L R Ls Rs LFE
  39. Sampling rate                            : 48.0 kHz
  40. Frame rate                               : 46.875 FPS (1024 SPF)
  41. Compression mode                         : Lossy
  42. Stream size                              : 249 MiB (8%)
  43. Language                                 : English
  44. Default                                  : Yes
  45. Alternate group                          : 1
  46. Encoded date                             : UTC 2021-10-21 23:42:23
  47. Tagged date                              : UTC 2021-10-21 23:42:23
复制代码







                                       
                                       

                                       
                                       
                                       




回复

使用道具 举报

懒得打字嘛,点击右侧快捷回复 【右侧内容,后台自定义】
您需要登录后才可以回帖 登录 | 立即加入

本版积分规则

Archiver|小黑屋| 蓝光电影网 |网站地图

Copyright © 2021 Comsenz Inc. Powered by 蓝光电影网

蓝光电影网

本站内容由用户自主分享和转载自互联网,转载目的在于传递更多信息,并不代表本网赞同其观点和对其真实性负责。

如有侵权、违反国家法律政策行为,请联系我们,我们会第一时间及时清除和处理!

举报反馈邮箱:[email protected]

快速回复 返回顶部 返回列表