找回密码

蓝光电影网

查看: 429|回复: 2

[剧情] 触礁/岩石上 On.the.Rocks.2020.720p.BluRay.x264.DTS-MT 5.38GB

[复制链接]
蓝光币
682
发表于 2021-10-22 16:14:56 | 显示全部楼层 |阅读模式


◎译  名 触礁/岩石上
◎片  名 On the Rocks
◎年  代 2020
◎产  地 美国
◎类  别 剧情 / 笑剧 / 冒险
◎语  言 英语
◎上映日期 2020-09-22(纽约电影节) / 2020-10-23(美国)
◎豆瓣评分 6.6/10 from 2744 users
◎豆瓣链接 https://movie.douban.com/subject/30432861/
◎片  长 97分钟
◎导  演 索菲亚·科波拉 Sofia Coppola
◎编  剧 索菲亚·科波拉 Sofia Coppola
◎主  演 比尔·默瑞 Bill Murray
       拉什达·琼斯 Rashida Jones
       马龙·韦恩斯 Marlon Wayans
       珍妮·斯蕾特 Jenny Slate
       杰西卡·亨维克 Jessica Henwick
       芭芭拉·贝恩 Barbara Bain
       纳迪雅·达珍妮 Nadia Dajani
       朱尔斯·威尔科克斯 Jules Willcox
       娜缇娅·蒂恩 Natia Dune
       桃乐丝·麦卡锡 Doris McCarthy
       南希·欧泽力 Nancy Ozelli
       Mike Keller Mike Keller
       华特鲁迪丝·巴克 Waltrudis Buck
       西蒙娜·拉马德里德 Ximena Lamadrid
◎标  签 美国 | 索菲亚·科波拉 | 2020 | 笑剧 | 剧情 | SofiaCoppola | BillMurray | 美国电影
◎简  介


  索菲亚·科波拉将执导新片《触礁》(On the Rocks),比尔·莫瑞、拉什达·琼斯主演,这将是苹果和A24合作的第一部电影,下月开拍。
  
  剧本由科波拉编写,报告一个年轻妈妈和她有豪杰色彩的父亲重新联系,在纽约展开一段冒险。
◎获奖情况
  第78届金球奖 ?(2021)
  电影类最好男配角(提名) 比尔·默瑞
  
  第71届美国剪辑工会奖 ?(2021)
  音乐/笑剧片最好剪辑(提名) 莎拉·弗拉克
  
  第26届美国批评家挑选电影奖 ?(2021)
  最好男配角(提名) 比尔·默瑞
  最好笑剧片(提名)
  
  第25届金卫星奖 ?(2021)
  电影部分最好笑剧/音乐片(提名)
  电影部分笑剧/音乐片最好女配角(提名) 拉什达·琼斯
  电影部分最好男配角(提名) 比尔·默瑞
  
  第33届芝加哥影评人协会奖 ?(2020)
  最好男配角(提名) 比尔·默瑞
  
  第24届美国在线影评人协会奖 ?(2021)
  最好男配角(提名) 比尔·默瑞
  1. Video
  2. ID                                       : 1
  3. Format                                   : AVC
  4. Format/Info                              : Advanced Video Codec
  5. Format profile                           : [email protected]
  6. Format settings                          : CABAC / 9 Ref Frames
  7. Format settings, CABAC                   : Yes
  8. Format settings, Reference frames        : 9 frames
  9. Codec ID                                 : V_MPEG4/ISO/AVC
  10. Duration                                 : 1 h 36 min
  11. Bit rate                                 : 6 442 kb/s
  12. Width                                    : 1 280 pixels
  13. Height                                   : 692 pixels
  14. Display aspect ratio                     : 1.85:1
  15. Frame rate mode                          : Constant
  16. Frame rate                               : 23.976 (24000/1001/189150) FPS
  17. Color space                              : YUV
  18. Chroma subsampling                       : 4:2:0
  19. Bit depth                                : 8 bits
  20. Scan type                                : Progressive
  21. Bits/(Pixel*Frame)                       : 0.303
  22. Stream size                              : 4.36 GiB (81%)
  23. Writing library                          : x264 core 157 r2938 2b00a84 [email protected] Mod
  24. Encoding settings                        : cabac=1 / ref=9 / deblock=1:-3:-3 / analyse=0x3:0x133 / me=umh / subme=10 / psy=1 / psy_rd=1.05:0.00 / mixed_ref=1 / me_range=32 / chroma_me=1 / trellis=2 / 8x8dct=1 / cqm=0 / deadzone=21,11 / fast_pskip=0 / chroma_qp_offset=-2 / threads=12 / lookahead_threads=2 / sliced_threads=0 / nr=0 / decimate=0 / interlaced=0 / bluray_compat=0 / constrained_intra=0 / bframes=8 / b_pyramid=2 / b_adapt=2 / b_bias=0 / direct=3 / weightb=1 / open_gop=0 / weightp=2 / keyint=250 / keyint_min=24 / scenecut=40 / intra_refresh=0 / rc_lookahead=250 / rc=crf / mbtree=0 / crf=16.8 / qcomp=0.60 / qpmin=0 / qpmax=69 / qpstep=4 / vbv_maxrate=62500 / vbv_bufsize=78125 / crf_max=0.0 / nal_hrd=none / filler=0 / ip_ratio=1.30 / pb_ratio=1.20 / aq=3:0.80
  25. Language                                 : English
  26. Default                                  : Yes
  27. Forced                                   : No
  28. Color range                              : Limited
  29. Color primaries                          : BT.709
  30. Matrix coefficients                      : BT.709
  31. Audio
  32. ID                                       : 2
  33. Format                                   : DTS
  34. Format/Info                              : Digital Theater Systems
  35. Codec ID                                 : A_DTS
  36. Duration                                 : 1 h 36 min
  37. Bit rate mode                            : Constant
  38. Bit rate                                 : 1 509 kb/s
  39. Channel(s)                               : 6 channels
  40. Channel layout                           : C L R Ls Rs LFE
  41. Sampling rate                            : 48.0 kHz
  42. Frame rate                               : 93.750 FPS (512 SPF)
  43. Bit depth                                : 24 bits
  44. Compression mode                         : Lossy
  45. Stream size                              : 1.02 GiB (19%)
  46. Language                                 : English
  47. Default                                  : Yes
  48. Forced                                   : No
  49. Text
  50. ID                                       : 3
  51. Format                                   : UTF-8
  52. Codec ID                                 : S_TEXT/UTF8
  53. Codec ID/Info                            : UTF-8 Plain Text
  54. Duration                                 : 1 h 29 min
  55. Bit rate                                 : 70 b/s
  56. Count of elements                        : 1413
  57. Stream size                              : 46.0 KiB (0%)
  58. Title                                    : SRT
  59. Language                                 : English
  60. Default                                  : Yes
  61. Forced                                   : No
  62. Menu
  63. 00:00:00.000                             : en:Chapter 01
  64. 00:05:39.631                             : en:Chapter 02
  65. 00:13:43.906                             : en:Chapter 03
  66. 00:18:19.348                             : en:Chapter 04
  67. 00:26:25.125                             : en:Chapter 05
  68. 00:31:55.622                             : en:Chapter 06
  69. 00:37:44.012                             : en:Chapter 07
  70. 00:43:19.013                             : en:Chapter 08
  71. 00:48:05.758                             : en:Chapter 09
  72. 00:56:44.610                             : en:Chapter 10
  73. 00:59:28.857                             : en:Chapter 11
  74. 01:04:44.297                             : en:Chapter 12
  75. 01:08:22.724                             : en:Chapter 13
  76. 01:14:19.538                             : en:Chapter 14
  77. 01:22:09.049                             : en:Chapter 15
  78. 01:27:49.097                             : en:Chapter 16
复制代码







                                       
                                       

                                       
                                       
                                       




回复

使用道具 举报

蓝光币
0
发表于 2021-10-22 21:56:39 | 显示全部楼层
谢谢风向!楼主平安!
回复 支持 反对

使用道具 举报

蓝光币
15
发表于 2021-10-23 01:14:28 | 显示全部楼层
谢谢风向!楼主平安!
回复 支持 反对

使用道具 举报

懒得打字嘛,点击右侧快捷回复 【右侧内容,后台自定义】
您需要登录后才可以回帖 登录 | 立即加入

本版积分规则

Archiver|小黑屋| 蓝光电影网 |网站地图

Copyright © 2021 Comsenz Inc. Powered by 蓝光电影网

蓝光电影网

本站内容由用户自主分享和转载自互联网,转载目的在于传递更多信息,并不代表本网赞同其观点和对其真实性负责。

如有侵权、违反国家法律政策行为,请联系我们,我们会第一时间及时清除和处理!

举报反馈邮箱:[email protected]

快速回复 返回顶部 返回列表