找回密码

蓝光电影网

查看: 180|回复: 0

[剧情] 伯格曼岛 Bergman.Island.2021.1080p.AMZN.WEBRip.DDP5.1.x264-NOGRP 7.44GB

[复制链接]
蓝光币
733
发表于 2021-10-22 18:37:56 | 显示全部楼层 |阅读模式


◎译  名 伯格曼岛
◎片  名 Bergman Island
◎年  代 2021
◎产  地 法国,瑞典,德国
◎类  别 剧情
◎语  言 英语
◎上映日期 2021-07-11(戛纳电影节) / 2021-07-14(法国) / 2021-10-15(美国/美国收集)
◎豆瓣评分 6.8/10 from 235 users
◎豆瓣链接 https://movie.douban.com/subject/26867808/
◎片  长 112分钟
◎导  演 米娅·汉森-洛夫 Mia Hansen-L?ve
◎编  剧 米娅·汉森-洛夫 Mia Hansen-L?ve
◎主  演 薇姬·克里普斯 Vicky Krieps
       蒂姆·罗斯 Tim Roth
       米娅·华希科沃斯卡 Mia Wasikowska
       安德斯·丹尼尔森·李 Anders Danielsen Lie
◎标  签 法国 | 法国电影 | 2021 | MiaWasikowska | MiaHansen-L?ve | GretaGerwig | 2020 | MiaHansen-Love
◎简  介


  格蕾塔·葛韦格、米娅·华希科沃斯卡和约翰·特托罗确认加盟米娅·汉森-洛夫([未来的事])执导的英文片[伯格曼岛]。故事围绕美国一对处置电影工作的夫妻展开。他们曾于一个炎天,在启发了电影大师英格玛·伯格曼的地方为电影创作剧本,此次他们将故地重游。该片估计将在明年炎天开拍。
◎获奖情况
  第74届戛纳电影节 ?(2021)
  主比赛单元金棕榈奖(提名) 米娅·汉森-洛夫
  1. Video
  2. ID                                       : 1
  3. Format                                   : AVC
  4. Format/Info                              : Advanced Video Codec
  5. Format profile                           : [email protected]
  6. Format settings                          : CABAC / 4 Ref Frames
  7. Format settings, CABAC                   : Yes
  8. Format settings, Reference frames        : 4 frames
  9. Codec ID                                 : V_MPEG4/ISO/AVC
  10. Duration                                 : 1 h 52 min
  11. Bit rate                                 : 8 611 kb/s
  12. Width                                    : 1 920 pixels
  13. Height                                   : 800 pixels
  14. Display aspect ratio                     : 2.40:1
  15. Frame rate mode                          : Constant
  16. Frame rate                               : 23.976 (24000/1001/189150) FPS
  17. Color space                              : YUV
  18. Chroma subsampling                       : 4:2:0
  19. Bit depth                                : 8 bits
  20. Scan type                                : Progressive
  21. Bits/(Pixel*Frame)                       : 0.234
  22. Stream size                              : 6.79 GiB (91%)
  23. Default                                  : Yes
  24. Forced                                   : No
  25. Color range                              : Limited
  26. Color primaries                          : BT.709
  27. Transfer characteristics                 : BT.709
  28. Matrix coefficients                      : BT.709
  29. Audio
  30. ID                                       : 2
  31. Format                                   : E-AC-3
  32. Format/Info                              : Enhanced AC-3
  33. Commercial name                          : Dolby Digital Plus
  34. Codec ID                                 : A_EAC3
  35. Duration                                 : 1 h 52 min
  36. Bit rate mode                            : Constant
  37. Bit rate                                 : 640 kb/s
  38. Channel(s)                               : 6 channels
  39. Channel layout                           : L R C LFE Ls Rs
  40. Sampling rate                            : 48.0 kHz
  41. Frame rate                               : 31.250 FPS (1536 SPF)
  42. Compression mode                         : Lossy
  43. Stream size                              : 517 MiB (7%)
  44. Language                                 : English
  45. Service kind                             : Complete Main
  46. Default                                  : Yes
  47. Forced                                   : No
  48. Text
  49. ID                                       : 3
  50. Format                                   : UTF-8
  51. Codec ID                                 : S_TEXT/UTF8
  52. Codec ID/Info                            : UTF-8 Plain Text
  53. Language                                 : English
  54. Default                                  : Yes
  55. Forced                                   : No
复制代码







                                       
                                       

                                       
                                       
                                       




回复

使用道具 举报

懒得打字嘛,点击右侧快捷回复 【右侧内容,后台自定义】
您需要登录后才可以回帖 登录 | 立即加入

本版积分规则

Archiver|小黑屋| 蓝光电影网 |网站地图

Copyright © 2021 Comsenz Inc. Powered by 蓝光电影网

蓝光电影网

本站内容由用户自主分享和转载自互联网,转载目的在于传递更多信息,并不代表本网赞同其观点和对其真实性负责。

如有侵权、违反国家法律政策行为,请联系我们,我们会第一时间及时清除和处理!

举报反馈邮箱:[email protected]

快速回复 返回顶部 返回列表