找回密码

蓝光电影网

查看: 345|回复: 0

[动作] 一个不留/每一个人 Every.Last.One.of.Them.2021.1080p.AMZN.WEBRip.DDP5.1.x264-CM 4.70GB

[复制链接]
蓝光币
682
发表于 2021-10-22 18:37:36 | 显示全部楼层 |阅读模式


◎译  名 一个不留/每一小我
◎片  名 Every Last One of Them
◎年  代 2021
◎产  地 美国
◎类  别 行动
◎语  言 英语
◎上映日期 2021-10-22(美国)
◎豆瓣评分 /10 from 0 users
◎豆瓣链接 https://movie.douban.com/subject/35580094/
◎片  长 82分钟
◎导  演 克里斯蒂安·塞斯玛 Christian Sesma
◎编  剧 克里斯蒂安·塞斯玛 Christian Sesma
◎主  演 理查德·德莱福斯 Richard Dreyfuss
       保罗·斯隆 Paul Sloan
       杰克·韦伯 Jake Weber
       塔恩·曼宁 Taryn Manning
       迈克·哈顿 Mike Hatton
       布莱恩·库瑞 Brian Hayes Currie
       Claire Kniaz Claire Kniaz
       尼克·瓦莱隆加 Nick Vallelonga
◎标  签 WK
◎简  介


  A man looking for his missing daughter, but his search uncovers a larger conspiracy involving a Chinatown-derail big capitalism deal over water rights.
  1. Video
  2. ID                                       : 1
  3. Format                                   : AVC
  4. Format/Info                              : Advanced Video Codec
  5. Format profile                           : [email protected]
  6. Format settings                          : CABAC / 4 Ref Frames
  7. Format settings, CABAC                   : Yes
  8. Format settings, Reference frames        : 4 frames
  9. Codec ID                                 : V_MPEG4/ISO/AVC
  10. Duration                                 : 1 h 22 min
  11. Bit rate mode                            : Constant
  12. Bit rate                                 : 7 488 kb/s
  13. Nominal bit rate                         : 10 000 kb/s
  14. Width                                    : 1 920 pixels
  15. Height                                   : 800 pixels
  16. Display aspect ratio                     : 2.40:1
  17. Frame rate mode                          : Constant
  18. Frame rate                               : 23.976 (24000/1001/189150) FPS
  19. Color space                              : YUV
  20. Chroma subsampling                       : 4:2:0
  21. Bit depth                                : 8 bits
  22. Scan type                                : Progressive
  23. Bits/(Pixel*Frame)                       : 0.203
  24. Stream size                              : 4.33 GiB (92%)
  25. Default                                  : Yes
  26. Forced                                   : No
  27. Color range                              : Limited
  28. Color primaries                          : BT.709
  29. Transfer characteristics                 : BT.709
  30. Matrix coefficients                      : BT.709
  31. Audio
  32. ID                                       : 2
  33. Format                                   : E-AC-3
  34. Format/Info                              : Enhanced AC-3
  35. Commercial name                          : Dolby Digital Plus
  36. Codec ID                                 : A_EAC3
  37. Duration                                 : 1 h 22 min
  38. Bit rate mode                            : Constant
  39. Bit rate                                 : 640 kb/s
  40. Channel(s)                               : 6 channels
  41. Channel layout                           : L R C LFE Ls Rs
  42. Sampling rate                            : 48.0 kHz
  43. Frame rate                               : 31.250 FPS (1536 SPF)
  44. Compression mode                         : Lossy
  45. Stream size                              : 379 MiB (8%)
  46. Title                                    : English
  47. Language                                 : English
  48. Service kind                             : Complete Main
  49. Default                                  : No
  50. Forced                                   : No
  51. Text #1
  52. ID                                       : 3
  53. Format                                   : UTF-8
  54. Codec ID                                 : S_TEXT/UTF8
  55. Codec ID/Info                            : UTF-8 Plain Text
  56. Duration                                 : 18 s 686 ms
  57. Bit rate                                 : 50 b/s
  58. Count of elements                        : 5
  59. Stream size                              : 119 Bytes (0%)
  60. Title                                    : English [Forced]
  61. Language                                 : English
  62. Default                                  : No
  63. Forced                                   : Yes
  64. Text #2
  65. ID                                       : 4
  66. Format                                   : UTF-8
  67. Codec ID                                 : S_TEXT/UTF8
  68. Codec ID/Info                            : UTF-8 Plain Text
  69. Duration                                 : 1 h 17 min
  70. Bit rate                                 : 54 b/s
  71. Count of elements                        : 958
  72. Stream size                              : 30.8 KiB (0%)
  73. Title                                    : English [SDH]
  74. Language                                 : English
  75. Default                                  : No
  76. Forced                                   : No
  77. Text #3
  78. ID                                       : 5
  79. Format                                   : UTF-8
  80. Codec ID                                 : S_TEXT/UTF8
  81. Codec ID/Info                            : UTF-8 Plain Text
  82. Duration                                 : 1 h 17 min
  83. Bit rate                                 : 49 b/s
  84. Count of elements                        : 850
  85. Stream size                              : 27.9 KiB (0%)
  86. Title                                    : English
  87. Language                                 : English
  88. Default                                  : No
  89. Forced                                   : No
  90. Text #4
  91. ID                                       : 6
  92. Format                                   : UTF-8
  93. Codec ID                                 : S_TEXT/UTF8
  94. Codec ID/Info                            : UTF-8 Plain Text
  95. Duration                                 : 1 h 21 min
  96. Bit rate                                 : 45 b/s
  97. Count of elements                        : 841
  98. Stream size                              : 27.0 KiB (0%)
  99. Title                                    : French (Canada)
  100. Language                                 : French
  101. Default                                  : No
  102. Forced                                   : No
复制代码





                                       
                                       

                                       
                                       
                                       




回复

使用道具 举报

懒得打字嘛,点击右侧快捷回复 【右侧内容,后台自定义】
您需要登录后才可以回帖 登录 | 立即加入

本版积分规则

Archiver|小黑屋| 蓝光电影网 |网站地图

Copyright © 2021 Comsenz Inc. Powered by 蓝光电影网

蓝光电影网

本站内容由用户自主分享和转载自互联网,转载目的在于传递更多信息,并不代表本网赞同其观点和对其真实性负责。

如有侵权、违反国家法律政策行为,请联系我们,我们会第一时间及时清除和处理!

举报反馈邮箱:[email protected]

快速回复 返回顶部 返回列表