找回密码

蓝光电影网

查看: 367|回复: 1

[科幻] 时栈中的指针/时光的针脚 Needle.in.a.Timestack.2021.1080p.BluRay.REMUX.AVC.DTS-HD.MA.5.1-FGT 28.85GB

[复制链接]
蓝光币
733
发表于 2021-10-22 21:12:50 | 显示全部楼层 |阅读模式


◎译  名 时栈中的指针/时光的针脚
◎片  名 Needle in a Timestack
◎年  代 2021
◎产  地 美国
◎类  别 科幻
◎语  言 英语
◎上映日期 2021-10-15(美国)
◎豆瓣评分 /10 from 0 users
◎豆瓣链接 https://movie.douban.com/subject/27019572/
◎导  演 约翰·里德利 John Ridley
◎编  剧 约翰·里德利 John Ridley / 罗伯特·西尔弗伯格 Robert Silverberg
◎主  演 辛西娅·艾莉佛 Cynthia Erivo
       蕾斯拉·德·奥利维拉 Laysla De Oliveira
       奥兰多·布鲁姆 Orlando Bloom
       小莱斯利·奥多姆 Leslie Odom Jr.
       亚历桑德罗·朱利安尼 Alessandro Juliani
       芙蕾达·平托 Freida Pinto
       神奈川宏幸 Hiro Kanagawa
       乔安娜·纽马奇 Johannah Newmarch
       詹姆斯·柯克 James Kirk
       伊丽莎白·韦恩斯坦 Elizabeth Weinstein
       Jadyn Wong Jadyn Wong
◎标  签 科幻 | 恋爱 | 美国 | Orlando | 待看 | Bloom | 2021 | 辛西娅·艾莉佛
◎简  介


  奥兰多·布鲁姆、芙蕾达·平托、小莱斯利·奥多姆、Cynthia Erivo将主演约翰·雷德利(《美国重案》)执导新片《时栈中的指针》(Needle in a Timestack),Bron Studios建造。
  
  基于Robert Silverberg写的短篇,雷德利改编剧本,设定在一个存在时候观光的天下里,一对夫妻尽力维系着婚姻,曩昔和现在总是摇摆不定。
  1. Video
  2. ID                                       : 1
  3. ID in the original source medium         : 4113 (0x1011)
  4. Format                                   : AVC
  5. Format/Info                              : Advanced Video Codec
  6. Format profile                           : [email protected]
  7. Format settings                          : CABAC / 4 Ref Frames
  8. Format settings, CABAC                   : Yes
  9. Format settings, Reference frames        : 4 frames
  10. Codec ID                                 : V_MPEG4/ISO/AVC
  11. Duration                                 : 1 h 51 min
  12. Bit rate mode                            : Variable
  13. Bit rate                                 : 33.9 Mb/s
  14. Maximum bit rate                         : 37.0 Mb/s
  15. Width                                    : 1 920 pixels
  16. Height                                   : 1 080 pixels
  17. Display aspect ratio                     : 16:9
  18. Frame rate mode                          : Constant
  19. Frame rate                               : 23.976 (24000/1001/189150) FPS
  20. Color space                              : YUV
  21. Chroma subsampling                       : 4:2:0
  22. Bit depth                                : 8 bits
  23. Scan type                                : Progressive
  24. Bits/(Pixel*Frame)                       : 0.682
  25. Stream size                              : 26.4 GiB (92%)
  26. Language                                 : English
  27. Default                                  : No
  28. Forced                                   : No
  29. Original source medium                   : Blu-ray
  30. Audio
  31. ID                                       : 2
  32. ID in the original source medium         : 4352 (0x1100)
  33. Format                                   : DTS XLL
  34. Format/Info                              : Digital Theater Systems
  35. Commercial name                          : DTS-HD Master Audio
  36. Codec ID                                 : A_DTS
  37. Duration                                 : 1 h 51 min
  38. Bit rate mode                            : Variable
  39. Bit rate                                 : 3 060 kb/s
  40. Channel(s)                               : 6 channels
  41. Channel layout                           : C L R Ls Rs LFE
  42. Sampling rate                            : 48.0 kHz
  43. Frame rate                               : 93.750 FPS (512 SPF)
  44. Bit depth                                : 24 bits
  45. Compression mode                         : Lossless
  46. Stream size                              : 2.38 GiB (8%)
  47. Title                                    : DTS-HD MA 5.1
  48. Language                                 : English
  49. Default                                  : Yes
  50. Forced                                   : No
  51. Original source medium                   : Blu-ray
  52. Text #1
  53. ID                                       : 3
  54. Format                                   : UTF-8
  55. Codec ID                                 : S_TEXT/UTF8
  56. Codec ID/Info                            : UTF-8 Plain Text
  57. Duration                                 : 1 h 47 min
  58. Bit rate                                 : 51 b/s
  59. Count of elements                        : 1161
  60. Stream size                              : 40.4 KiB (0%)
  61. Title                                    : SRT
  62. Language                                 : English
  63. Default                                  : Yes
  64. Forced                                   : No
  65. Text #2
  66. ID                                       : 4
  67. ID in the original source medium         : 4608 (0x1200)
  68. Format                                   : PGS
  69. Muxing mode                              : zlib
  70. Codec ID                                 : S_HDMV/PGS
  71. Codec ID/Info                            : Picture based subtitle format used on BDs/HD-DVDs
  72. Duration                                 : 1 h 47 min
  73. Bit rate                                 : 34.2 kb/s
  74. Count of elements                        : 2541
  75. Stream size                              : 26.3 MiB (0%)
  76. Language                                 : English
  77. Default                                  : No
  78. Forced                                   : No
  79. Original source medium                   : Blu-ray
  80. Text #3
  81. ID                                       : 5
  82. ID in the original source medium         : 4609 (0x1201)
  83. Format                                   : PGS
  84. Muxing mode                              : zlib
  85. Codec ID                                 : S_HDMV/PGS
  86. Codec ID/Info                            : Picture based subtitle format used on BDs/HD-DVDs
  87. Duration                                 : 1 h 42 min
  88. Bit rate                                 : 29.1 kb/s
  89. Count of elements                        : 2246
  90. Stream size                              : 21.3 MiB (0%)
  91. Language                                 : Spanish
  92. Default                                  : No
  93. Forced                                   : No
  94. Original source medium                   : Blu-ray
  95. Menu
  96. 00:00:00.000                             : en:Chapter 01
  97. 00:04:31.187                             : en:Chapter 02
  98. 00:16:55.180                             : en:Chapter 03
  99. 00:24:36.558                             : en:Chapter 04
  100. 00:31:19.502                             : en:Chapter 05
  101. 00:38:45.906                             : en:Chapter 06
  102. 00:45:33.230                             : en:Chapter 07
  103. 00:49:52.656                             : en:Chapter 08
  104. 00:53:35.503                             : en:Chapter 09
  105. 01:01:07.747                             : en:Chapter 10
  106. 01:06:32.822                             : en:Chapter 11
  107. 01:11:25.656                             : en:Chapter 12
  108. 01:19:39.441                             : en:Chapter 13
  109. 01:28:06.823                             : en:Chapter 14
  110. 01:32:47.395                             : en:Chapter 15
  111. 01:38:47.755                             : en:Chapter 16
复制代码







                                       
                                       

                                       
                                       
                                       




回复

使用道具 举报

蓝光币
4
发表于 2021-10-23 19:04:04 | 显示全部楼层
看着分不清现实与梦境了
回复 支持 反对

使用道具 举报

懒得打字嘛,点击右侧快捷回复 【右侧内容,后台自定义】
您需要登录后才可以回帖 登录 | 立即加入

本版积分规则

Archiver|小黑屋| 蓝光电影网 |网站地图

Copyright © 2021 Comsenz Inc. Powered by 蓝光电影网

蓝光电影网

本站内容由用户自主分享和转载自互联网,转载目的在于传递更多信息,并不代表本网赞同其观点和对其真实性负责。

如有侵权、违反国家法律政策行为,请联系我们,我们会第一时间及时清除和处理!

举报反馈邮箱:[email protected]

快速回复 返回顶部 返回列表