找回密码

蓝光电影网

查看: 847|回复: 4

[动作] 沙丘/星际奇兵 Dune.1984.BONUS.DISC.720p.BluRay.x264.DTS-FGT 4.02GB

[复制链接]
蓝光币
733
发表于 2021-10-23 08:44:23 | 显示全部楼层 |阅读模式


◎译  名 沙丘/星际奇兵(港)/沙丘魔堡(台)
◎片  名 Dune
◎年  代 1984
◎产  地 美国
◎类  别 行动 / 科幻 / 冒险
◎语  言 英语,意大利语
◎上映日期 1984-12-01(美国)
◎豆瓣评分 6.0/10 from 5007 users
◎豆瓣链接 https://movie.douban.com/subject/1293092/
◎片  长 137 分钟
◎导  演 大卫·林奇 David Lynch
◎编  剧 大卫·林奇 David Lynch / 弗兰克·赫伯特 Frank Herbert
◎主  演 肖恩·杨 Sean Young
       帕特里克·斯图尔特 Patrick Stewart
       斯汀 Sting
       凯尔·麦克拉克伦 Kyle MacLachlan
       理查德·乔丹 Richard Jordan
       西尔瓦娜·曼加诺 Silvana Mangano
       埃沃雷特·麦克吉尔 Everett McGill
       肯尼思·麦克米伦 Kenneth McMillan
       简·菲利普斯 Sian Phillips
       尤尔根·普洛斯诺 Jürgen Prochnow
       保罗·L·史姑娘 Paul L. Smith
       迪恩·斯托克维尔 Dean Stockwell
       琳达·亨特 Linda Hunt
       何塞·费勒 José Ferrer
       维吉妮娅·马德森 Virginia Madsen
       艾丽西亚·维特 Alicia Witt
       大卫·林奇 David Lynch
       马克斯·冯·叙多夫 Max von Sydow
       杰克·南斯 Jack Nance
       弗雷迪·琼斯 Freddie Jones
       安杰莉卡·阿拉贡 Angélica Aragón
◎标  签 科幻 | 大卫·林奇 | 美国 | 沙丘 | DavidLynch | 1984 | 美国电影 | 1980s
◎简  介


  故事发生在悠远的未来时代,沙丹四世(何塞·费勒 José Ferrer 饰)是宇宙之王,他靠着自己的强权和武力控制着全部帝国。虽然手握大权,但沙丹四世还是没有平安感,他以为自己的表弟亚崔迪公爵(尤尔根·普洛斯诺 Jürgen Prochnow 饰)诡计谋权篡位,是以将他发配到了悠远的凯勒丹行星上。
  
  沙丹四世对于亚崔迪公爵的迫害并没有停止,最初,公爵败北自杀,留下妻子和儿子保罗(凯尔·麦克拉克伦 Kyle MacLachlan 饰)流浪失所,两人逃到了广袤的沙漠当中,向当地的土著乞助。土著们将保罗当做了他们的救世主顶礼跪拜,保罗终极成为了土著魁首,并和名为佳妮(肖恩·杨 Sean Young 饰)确当地女子结为夫妻,但是,复仇的火焰从未在他的心中熄灭过。
◎获奖情况
  第57届奥斯卡金像奖 ?(1985)
  最好声响(提名) 凯文·奥康奈尔?/?比尔·瓦尼?/?史蒂夫·马斯洛?/?尼尔森·斯托尔
  1. Video
  2. ID                                       : 1
  3. Format                                   : AVC
  4. Format/Info                              : Advanced Video Codec
  5. Format profile                           : [email protected]
  6. Format settings                          : CABAC / 4 Ref Frames
  7. Format settings, CABAC                   : Yes
  8. Format settings, Reference frames        : 4 frames
  9. Codec ID                                 : V_MPEG4/ISO/AVC
  10. Duration                                 : 1 h 22 min
  11. Bit rate                                 : 5 500 kb/s
  12. Width                                    : 1 280 pixels
  13. Height                                   : 534 pixels
  14. Display aspect ratio                     : 2.40:1
  15. Original display aspect ratio            : 2.40:1
  16. Frame rate mode                          : Constant
  17. Frame rate                               : 23.976 (24000/1001/189150) FPS
  18. Color space                              : YUV
  19. Chroma subsampling                       : 4:2:0
  20. Bit depth                                : 8 bits
  21. Scan type                                : Progressive
  22. Bits/(Pixel*Frame)                       : 0.336
  23. Stream size                              : 3.16 GiB (78%)
  24. Writing library                          : x264 core 148 r2795M aaa9aa8
  25. Encoding settings                        : cabac=1 / ref=4 / deblock=1:-2:-2 / analyse=0x3:0x113 / me=umh / subme=9 / psy=1 / psy_rd=1.00:0.15 / mixed_ref=1 / me_range=16 / chroma_me=1 / trellis=2 / 8x8dct=1 / cqm=0 / deadzone=21,11 / fast_pskip=1 / chroma_qp_offset=-3 / threads=24 / lookahead_threads=3 / sliced_threads=0 / nr=0 / decimate=1 / interlaced=0 / bluray_compat=0 / constrained_intra=0 / bframes=3 / b_pyramid=2 / b_adapt=1 / b_bias=0 / direct=3 / weightb=1 / open_gop=0 / weightp=2 / keyint=250 / keyint_min=25 / scenecut=40 / intra_refresh=0 / rc_lookahead=50 / rc=2pass / mbtree=1 / bitrate=5500 / ratetol=1.0 / qcomp=0.60 / qpmin=0 / qpmax=69 / qpstep=4 / cplxblur=20.0 / qblur=0.5 / vbv_maxrate=31250 / vbv_bufsize=31250 / nal_hrd=none / filler=0 / ip_ratio=1.40 / aq=1:1.00
  26. Language                                 : English
  27. Default                                  : Yes
  28. Forced                                   : No
  29. Audio
  30. ID                                       : 2
  31. Format                                   : DTS
  32. Format/Info                              : Digital Theater Systems
  33. Codec ID                                 : A_DTS
  34. Duration                                 : 1 h 22 min
  35. Bit rate mode                            : Constant
  36. Bit rate                                 : 1 509 kb/s
  37. Channel(s)                               : 2 channels
  38. Channel layout                           : L R
  39. Sampling rate                            : 48.0 kHz
  40. Frame rate                               : 93.750 FPS (512 SPF)
  41. Bit depth                                : 16 bits
  42. Compression mode                         : Lossy
  43. Stream size                              : 887 MiB (22%)
  44. Language                                 : English
  45. Default                                  : Yes
  46. Forced                                   : No
  47. Menu
  48. 00:00:00.000                             : en:Chapter 01
  49. 00:01:30.340                             : en:Chapter 02
  50. 00:11:20.096                             : en:Chapter 03
  51. 00:24:37.976                             : en:Chapter 04
  52. 00:44:03.223                             : en:Chapter 05
  53. 01:00:22.035                             : en:Chapter 06
  54. 01:15:00.078                             : en:Chapter 07
复制代码







                                       
                                       

                                       
                                       
                                       




回复

使用道具 举报

蓝光币
189
发表于 2021-10-23 14:39:53 | 显示全部楼层
西游降魔篇
回复 支持 反对

使用道具 举报

蓝光币
4
发表于 2021-10-26 20:23:30 | 显示全部楼层
楼主发贴辛苦了,谢谢楼主分享!我觉得蓝光电影网是注册对了!
回复 支持 反对

使用道具 举报

蓝光币
30
发表于 2021-10-27 17:06:58 | 显示全部楼层

这东西我收了!谢谢楼主!蓝光电影网真好!
回复 支持 反对

使用道具 举报

蓝光币
1
发表于 2021-11-1 08:50:55 | 显示全部楼层
这个还正在放,下来看看,先支持楼主分享
回复 支持 反对

使用道具 举报

懒得打字嘛,点击右侧快捷回复 【右侧内容,后台自定义】
您需要登录后才可以回帖 登录 | 立即加入

本版积分规则

Archiver|小黑屋| 蓝光电影网 |网站地图

Copyright © 2021 Comsenz Inc. Powered by 蓝光电影网

蓝光电影网

本站内容由用户自主分享和转载自互联网,转载目的在于传递更多信息,并不代表本网赞同其观点和对其真实性负责。

如有侵权、违反国家法律政策行为,请联系我们,我们会第一时间及时清除和处理!

举报反馈邮箱:[email protected]

快速回复 返回顶部 返回列表