找回密码

蓝光电影网

查看: 434|回复: 2

[剧情] 印度/印度:故乡 India.Matri.Bhumi.1959.1080p.BluRay.x264-BiPOLAR 10.57GB

[复制链接]
蓝光币
682
发表于 2021-10-23 08:50:15 | 显示全部楼层 |阅读模式


◎译  名 印度/印度:故乡
◎片  名 India: Matri Bhumi
◎年  代 1959
◎产  地 意大利,法国
◎类  别 剧情 / 记载片
◎语  言 意大利语
◎上映日期 1959-05-09(戛纳电影节)
◎豆瓣评分 7.8/10 from 350 users
◎豆瓣链接 https://movie.douban.com/subject/1763640/
◎片  长 90 分钟
◎导  演 罗伯托·罗西里尼 Roberto Rossellini
◎编  剧 罗伯托·罗西里尼 Roberto Rossellini / 费雷敦·霍维达 Fereydoun Hoveyda / 温琴佐·塔拉里科 Vincenzo Talarico
◎标  签 记载片 | 意大利 | 印度 | 罗西里尼 | 意大利电影 | 1950s | 罗伯托·罗西里尼 | RobertoRossellini
◎简  介


  本片分为四个部分,展开了对印度文化、修建及社会状态之旅。那时的印度社区状态给导演罗西利尼留下了深入的印象。
  1. Video
  2. ID                                       : 1
  3. Format                                   : AVC
  4. Format/Info                              : Advanced Video Codec
  5. Format profile                           : [email protected]
  6. Format settings                          : CABAC / 5 Ref Frames
  7. Format settings, CABAC                   : Yes
  8. Format settings, Reference frames        : 5 frames
  9. Codec ID                                 : V_MPEG4/ISO/AVC
  10. Duration                                 : 1 h 30 min
  11. Bit rate                                 : 16.6 Mb/s
  12. Width                                    : 1 480 pixels
  13. Height                                   : 1 080 pixels
  14. Display aspect ratio                     : 1.370
  15. Frame rate mode                          : Constant
  16. Frame rate                               : 24.000 FPS
  17. Color space                              : YUV
  18. Chroma subsampling                       : 4:2:0
  19. Bit depth                                : 8 bits
  20. Scan type                                : Progressive
  21. Bits/(Pixel*Frame)                       : 0.432
  22. Stream size                              : 10.4 GiB (99%)
  23. Writing library                          : x264 core 164 r3075 66a5bc1
  24. Encoding settings                        : cabac=1 / ref=5 / deblock=1:-3:-3 / analyse=0x3:0x133 / me=umh / subme=10 / psy=1 / psy_rd=1.00:0.15 / mixed_ref=1 / me_range=24 / chroma_me=1 / trellis=2 / 8x8dct=1 / cqm=0 / deadzone=21,11 / fast_pskip=1 / chroma_qp_offset=-3 / threads=18 / lookahead_threads=3 / sliced_threads=0 / nr=0 / decimate=1 / interlaced=0 / bluray_compat=0 / constrained_intra=0 / bframes=8 / b_pyramid=2 / b_adapt=2 / b_bias=0 / direct=3 / weightb=1 / open_gop=0 / weightp=2 / keyint=250 / keyint_min=24 / scenecut=40 / intra_refresh=0 / rc_lookahead=60 / rc=crf / mbtree=1 / crf=18.5 / qcomp=0.60 / qpmin=0 / qpmax=69 / qpstep=4 / ip_ratio=1.40 / aq=3:0.50
  25. Language                                 : English
  26. Default                                  : Yes
  27. Forced                                   : No

  28. Audio
  29. ID                                       : 2
  30. Format                                   : FLAC
  31. Format/Info                              : Free Lossless Audio Codec
  32. Codec ID                                 : A_FLAC
  33. Duration                                 : 1 h 30 min
  34. Bit rate mode                            : Variable
  35. Bit rate                                 : 207 kb/s
  36. Channel(s)                               : 2 channels
  37. Channel layout                           : L R
  38. Sampling rate                            : 48.0 kHz
  39. Frame rate                               : 11.719 FPS (4096 SPF)
  40. Bit depth                                : 16 bits
  41. Compression mode                         : Lossless
  42. Stream size                              : 134 MiB (1%)
  43. Writing library                          : libFLAC 1.2.1 (UTC 2007-09-17)
  44. Language                                 : Italian
  45. Default                                  : Yes
  46. Forced                                   : No

  47. Text #1
  48. ID                                       : 3
  49. Format                                   : UTF-8
  50. Codec ID                                 : S_TEXT/UTF8
  51. Codec ID/Info                            : UTF-8 Plain Text
  52. Duration                                 : 1 h 30 min
  53. Bit rate                                 : 28 b/s
  54. Count of elements                        : 496
  55. Stream size                              : 18.8 KiB (0%)
  56. Title                                    : English
  57. Language                                 : English
  58. Default                                  : Yes
  59. Forced                                   : Yes

  60. Text #2
  61. ID                                       : 4
  62. Format                                   : PGS
  63. Muxing mode                              : zlib
  64. Codec ID                                 : S_HDMV/PGS
  65. Codec ID/Info                            : Picture based subtitle format used on BDs/HD-DVDs
  66. Duration                                 : 1 h 30 min
  67. Bit rate                                 : 4 333 b/s
  68. Count of elements                        : 992
  69. Stream size                              : 2.79 MiB (0%)
  70. Title                                    : English
  71. Language                                 : English
  72. Default                                  : No
  73. Forced                                   : No

  74. Menu
  75. 00:00:00.000                             : en:00:00:00.000
  76. 00:09:31.333                             : en:00:09:31.333
  77. 00:21:19.125                             : en:00:21:19.125
  78. 00:28:51.375                             : en:00:28:51.375
  79. 00:36:34.125                             : en:00:36:34.125
  80. 00:43:45.708                             : en:00:43:45.708
  81. 00:51:24.750                             : en:00:51:24.750
  82. 00:59:28.583                             : en:00:59:28.583
  83. 01:10:33.250                             : en:01:10:33.250
  84. 01:22:29.792                             : en:01:22:29.792
复制代码





                                       
                                       

                                       
                                       
                                       




回复

使用道具 举报

蓝光币
2
发表于 2021-10-23 11:55:58 | 显示全部楼层
感谢楼主的无私分享!要想蓝光电影网好 就靠你我他
回复 支持 反对

使用道具 举报

蓝光币
4
发表于 2021-11-17 21:48:39 | 显示全部楼层
楼主发贴辛苦了,谢谢楼主分享!我觉得蓝光电影网是注册对了
回复 支持 反对

使用道具 举报

懒得打字嘛,点击右侧快捷回复 【右侧内容,后台自定义】
您需要登录后才可以回帖 登录 | 立即加入

本版积分规则

Archiver|小黑屋| 蓝光电影网 |网站地图

Copyright © 2021 Comsenz Inc. Powered by 蓝光电影网

蓝光电影网

本站内容由用户自主分享和转载自互联网,转载目的在于传递更多信息,并不代表本网赞同其观点和对其真实性负责。

如有侵权、违反国家法律政策行为,请联系我们,我们会第一时间及时清除和处理!

举报反馈邮箱:[email protected]

快速回复 返回顶部 返回列表