找回密码

蓝光电影网

查看: 165|回复: 0

[喜剧] 怪物家族2:人无完人 Monster.Family.2.2021.1080p.NOW.WEBRip.DDP5.1.x264-QOQ 5.55GB

[复制链接]
蓝光币
733
发表于 2021-10-23 09:21:39 | 显示全部楼层 |阅读模式


◎译  名 怪物家属2:人无完人
◎片  名 Monster Family 2: Nobody is Perfect
◎年  代 2021
◎产  地 美国
◎类  别 笑剧 / 动画 / 家庭
◎语  言 英语
◎上映日期 2021-10-28(美国)
◎豆瓣评分 /10 from 0 users
◎豆瓣链接 https://movie.douban.com/subject/35603688/
◎导  演 霍尔格·塔佩 Holger Tappe
◎编  剧 大卫·萨菲尔 David Safier
◎主  演 杰西卡·布朗·芬德利 Jessica Brown Findlay
       艾米丽·凯里 Emily Carey
       尼克·弗罗斯特 Nick Frost
◎标  签 WK
◎简  介


  To free Baba Yaga and Renfield from the clutches of Monster Hunter Mila Starr, the Wishbone Family once more transforms into a Vampire, Frankenstein's Monster, a Mummy and a Werewolf. Aided and abetted by their three pet bats, our Monster Family zooms around the world again to save their friends, make new monstrous acquaintances and finally come to the realization that 'Nobody's Perfect' - even those with flaws can find happiness.
  1. Video
  2. ID                                       : 1
  3. Format                                   : AVC
  4. Format/Info                              : Advanced Video Codec
  5. Format profile                           : [email protected]
  6. Format settings                          : CABAC / 2 Ref Frames
  7. Format settings, CABAC                   : Yes
  8. Format settings, Reference frames        : 2 frames
  9. Codec ID                                 : V_MPEG4/ISO/AVC
  10. Duration                                 : 1 h 39 min
  11. Bit rate mode                            : Constant
  12. Bit rate                                 : 7 830 kb/s
  13. Width                                    : 1 920 pixels
  14. Height                                   : 1 080 pixels
  15. Display aspect ratio                     : 16:9
  16. Frame rate mode                          : Constant
  17. Frame rate                               : 25.000 FPS
  18. Color space                              : YUV
  19. Chroma subsampling                       : 4:2:0
  20. Bit depth                                : 8 bits
  21. Scan type                                : Progressive
  22. Bits/(Pixel*Frame)                       : 0.151
  23. Stream size                              : 5.42 GiB (98%)
  24. Default                                  : Yes
  25. Forced                                   : No
  26. Audio
  27. ID                                       : 2
  28. Format                                   : E-AC-3
  29. Format/Info                              : Enhanced AC-3
  30. Commercial name                          : Dolby Digital Plus
  31. Codec ID                                 : A_EAC3
  32. Duration                                 : 1 h 39 min
  33. Bit rate mode                            : Constant
  34. Bit rate                                 : 192 kb/s
  35. Channel(s)                               : 6 channels
  36. Channel layout                           : L R C LFE Ls Rs
  37. Sampling rate                            : 48.0 kHz
  38. Frame rate                               : 31.250 FPS (1536 SPF)
  39. Compression mode                         : Lossy
  40. Stream size                              : 136 MiB (2%)
  41. Language                                 : English
  42. Service kind                             : Complete Main
  43. Default                                  : Yes
  44. Forced                                   : No
  45. Text #1
  46. ID                                       : 3
  47. Format                                   : UTF-8
  48. Codec ID                                 : S_TEXT/UTF8
  49. Codec ID/Info                            : UTF-8 Plain Text
  50. Duration                                 : 1 h 36 min
  51. Bit rate                                 : 58 b/s
  52. Count of elements                        : 1294
  53. Stream size                              : 41.6 KiB (0%)
  54. Language                                 : English
  55. Default                                  : No
  56. Forced                                   : No
  57. Text #2
  58. ID                                       : 4
  59. Format                                   : UTF-8
  60. Codec ID                                 : S_TEXT/UTF8
  61. Codec ID/Info                            : UTF-8 Plain Text
  62. Duration                                 : 1 h 37 min
  63. Bit rate                                 : 65 b/s
  64. Count of elements                        : 1461
  65. Stream size                              : 46.4 KiB (0%)
  66. Title                                    : SDH
  67. Language                                 : English
  68. Default                                  : No
  69. Forced                                   : No
  70. Menu
  71. 01:32:52.000                             : en:Credits
复制代码







                                       
                                       

                                       
                                       
                                       




回复

使用道具 举报

懒得打字嘛,点击右侧快捷回复 【右侧内容,后台自定义】
您需要登录后才可以回帖 登录 | 立即加入

本版积分规则

Archiver|小黑屋| 蓝光电影网 |网站地图

Copyright © 2021 Comsenz Inc. Powered by 蓝光电影网

蓝光电影网

本站内容由用户自主分享和转载自互联网,转载目的在于传递更多信息,并不代表本网赞同其观点和对其真实性负责。

如有侵权、违反国家法律政策行为,请联系我们,我们会第一时间及时清除和处理!

举报反馈邮箱:[email protected]

快速回复 返回顶部 返回列表