找回密码

蓝光电影网

查看: 444|回复: 2

[剧情] 武士的一分 Love.and.Honor.2006.1080p.BluRay.x264-USURY 16.91GB

[复制链接]
蓝光币
682
发表于 2021-10-23 12:05:20 | 显示全部楼层 |阅读模式


◎译  名 军人的一分/Bushi no ichibun/Love and Honor/军人的庄严
◎片  名 军人の一分
◎年  代 2006
◎产  地 日本
◎类  别 剧情 / 恋爱
◎语  言 日语
◎上映日期 2006-12-01(日本)
◎豆瓣评分 7.9/10 from 9705 users
◎豆瓣链接 https://movie.douban.com/subject/1483808/
◎片  长 121分钟
◎导  演 山田洋次 Y?ji Yamada
◎编  剧 山田洋次 Y?ji Yamada / 平松惠美子 Emiko Hiramatsu / 山本一郎 Ichir? Yamamoto / 藤泽周平 Shuuhei Fujisawa
◎主  演 木村拓哉 Takuya Kimura
       檀丽 Rei Dan
       坂东三津五郎 Mitsugoro Bando
       笹野高史 Takashi Sasano
       桃井薰 Kaori Momoi
       小林稔侍 Nenji Kobayashi
       绪形拳 Ken Ogata
       赤冢真人 Makoto Akatsuka
       绫田俊树 Toshiki Ayata
       科琳·克林肯比尔 Colleen Clinkenbeard
       贾斯汀·库克 Justin Cook
       大地康雄 Yasuo Daichi
       左时枝 Tokie Hidari
       近藤公园 K?en Kond?
       冈本信人 Nobuto Okamoto
       克里斯托弗·萨巴特 Christopher Sabat
       肯特·威廉斯 Kent Williams
◎标  签 日本 | 木村拓哉 | 山田洋次 | 日本电影 | 军人 | 2006 | 军人的一分 | 剧情
◎简  介


  三村新之丞(木村拓哉 饰)是名普通的下级军人,他的工作是帮藩主试毒,备好的饭菜先由试毒者吃,确认没有不良反应后才会给仆人吃。就在一次试毒中,新之丞双目失明,落空眼睛无异于废人,他的命运急转而下,幸而美貌贤慧的妻子加世(檀丽 饰)帮助下,他才重新面临生活。
  
  但三村一家由此落空 了生活来历,在亲友倡议下,为了保持生存,加世奉求下级军人岛田藤弥(坂东三津五郎 饰)向藩主讨情,希望能保住一半薪俸。可岛田以新之丞的薪俸为威胁,逼迫加世委身于他。新之丞得知后,没法接管究竟,休掉了妻子并决议和岛田决一死战,挽回比生命加倍贵重的军人庄严。
◎获奖情况
  第30届日本电影学院奖 ?(2007)
  最好影片(提名)
  最好导演(提名) 山田洋次
  最好编剧(提名) 山田洋次?/?平松惠美子?/?山本一郎
  最好女配角(提名) 檀丽
  最好男配角 笹野高史
  最好女配角(提名) 桃井薰
  最好配乐(提名) 富田勋
  最好摄影 长沼六男
  最好美术指导(提名) 出川三男
  最好照明 中须岳士
  最好录音(提名) 岸田和美
  最好剪辑(提名) 石井岩
  最好新人 檀丽
  
  第10届上海国际电影节 ?(2007)
  金爵奖最好影片(提名) 山田洋次
  金爵奖最好音乐 富田勋
  
  第1届亚洲电影大奖 ?(2007)
  最好电影(提名)
  1. Video
  2. ID                                       : 1
  3. Format                                   : AVC
  4. Format/Info                              : Advanced Video Codec
  5. Format profile                           : [email protected]
  6. Format settings                          : CABAC / 4 Ref Frames
  7. Format settings, CABAC                   : Yes
  8. Format settings, Reference frames        : 4 frames
  9. Codec ID                                 : V_MPEG4/ISO/AVC
  10. Duration                                 : 2 h 2 min
  11. Bit rate                                 : 17.7 Mb/s
  12. Width                                    : 1 916 pixels
  13. Height                                   : 1 036 pixels
  14. Display aspect ratio                     : 1.85:1
  15. Frame rate mode                          : Constant
  16. Frame rate                               : 23.976 (24000/1001/189150) FPS
  17. Color space                              : YUV
  18. Chroma subsampling                       : 4:2:0
  19. Bit depth                                : 8 bits
  20. Scan type                                : Progressive
  21. Bits/(Pixel*Frame)                       : 0.372
  22. Stream size                              : 15.1 GiB (89%)
  23. Writing library                          : x264 core 164 r3075 66a5bc1
  24. Encoding settings                        : cabac=1 / ref=4 / deblock=1:-3:-3 / analyse=0x3:0x133 / me=umh / subme=10 / psy=1 / psy_rd=1.00:0.15 / mixed_ref=1 / me_range=24 / chroma_me=1 / trellis=2 / 8x8dct=1 / cqm=0 / deadzone=21,11 / fast_pskip=1 / chroma_qp_offset=-3 / threads=18 / lookahead_threads=3 / sliced_threads=0 / nr=0 / decimate=1 / interlaced=0 / bluray_compat=0 / constrained_intra=0 / bframes=8 / b_pyramid=2 / b_adapt=2 / b_bias=0 / direct=3 / weightb=1 / open_gop=0 / weightp=2 / keyint=250 / keyint_min=23 / scenecut=40 / intra_refresh=0 / rc_lookahead=60 / rc=crf / mbtree=1 / crf=17.0 / qcomp=0.60 / qpmin=0 / qpmax=69 / qpstep=4 / ip_ratio=1.40 / aq=3:0.60
  25. Language                                 : English
  26. Default                                  : Yes
  27. Forced                                   : No
  28. Color range                              : Limited
  29. Matrix coefficients                      : BT.709

  30. Audio
  31. ID                                       : 2
  32. Format                                   : DTS XLL
  33. Format/Info                              : Digital Theater Systems
  34. Commercial name                          : DTS-HD Master Audio
  35. Codec ID                                 : A_DTS
  36. Duration                                 : 2 h 2 min
  37. Bit rate mode                            : Variable
  38. Bit rate                                 : 2 044 kb/s
  39. Channel(s)                               : 6 channels
  40. Channel layout                           : C L R Ls Rs LFE
  41. Sampling rate                            : 48.0 kHz
  42. Frame rate                               : 93.750 FPS (512 SPF)
  43. Bit depth                                : 16 bits
  44. Compression mode                         : Lossless
  45. Stream size                              : 1.74 GiB (10%)
  46. Language                                 : Japanese
  47. Default                                  : Yes
  48. Forced                                   : No

  49. Text #1
  50. ID                                       : 3
  51. Format                                   : UTF-8
  52. Codec ID                                 : S_TEXT/UTF8
  53. Codec ID/Info                            : UTF-8 Plain Text
  54. Duration                                 : 2 h 1 min
  55. Bit rate                                 : 33 b/s
  56. Count of elements                        : 1057
  57. Stream size                              : 29.5 KiB (0%)
  58. Title                                    : English
  59. Language                                 : English
  60. Default                                  : Yes
  61. Forced                                   : Yes

  62. Text #2
  63. ID                                       : 4
  64. Format                                   : PGS
  65. Muxing mode                              : zlib
  66. Codec ID                                 : S_HDMV/PGS
  67. Codec ID/Info                            : Picture based subtitle format used on BDs/HD-DVDs
  68. Duration                                 : 1 h 58 min
  69. Bit rate                                 : 73.9 kb/s
  70. Count of elements                        : 7183
  71. Stream size                              : 62.4 MiB (0%)
  72. Title                                    : Japanese
  73. Language                                 : Japanese
  74. Default                                  : No
  75. Forced                                   : No

  76. Menu
  77. 00:00:00.000                             : en:00:00:00.000
  78. 00:10:45.395                             : en:00:10:45.395
  79. 00:20:56.338                             : en:00:20:56.338
  80. 00:27:55.924                             : en:00:27:55.924
  81. 00:32:16.017                             : en:00:32:16.017
  82. 00:38:17.670                             : en:00:38:17.670
  83. 00:48:57.977                             : en:00:48:57.977
  84. 00:54:44.531                             : en:00:54:44.531
  85. 01:02:07.223                             : en:01:02:07.223
  86. 01:09:38.925                             : en:01:09:38.925
  87. 01:16:58.155                             : en:01:16:58.155
  88. 01:24:31.066                             : en:01:24:31.066
  89. 01:31:41.079                             : en:01:31:41.079
  90. 01:40:30.316                             : en:01:40:30.316
  91. 01:47:58.639                             : en:01:47:58.639
复制代码





                                       
                                       

                                       
                                       
                                       




回复

使用道具 举报

蓝光币
43
发表于 2021-10-25 21:48:13 | 显示全部楼层
洗版了,好片,谢谢
回复 支持 反对

使用道具 举报

蓝光币
43
发表于 2021-10-25 21:50:02 | 显示全部楼层
看来抢到了沙发
回复 支持 反对

使用道具 举报

懒得打字嘛,点击右侧快捷回复 【右侧内容,后台自定义】
您需要登录后才可以回帖 登录 | 立即加入

本版积分规则

Archiver|小黑屋| 蓝光电影网 |网站地图

Copyright © 2021 Comsenz Inc. Powered by 蓝光电影网

蓝光电影网

本站内容由用户自主分享和转载自互联网,转载目的在于传递更多信息,并不代表本网赞同其观点和对其真实性负责。

如有侵权、违反国家法律政策行为,请联系我们,我们会第一时间及时清除和处理!

举报反馈邮箱:[email protected]

快速回复 返回顶部 返回列表