找回密码

蓝光电影网

查看: 449|回复: 0

[剧情] 舞国英雄/严格的舞厅 Strictly.Ballroom.1992.PROPER.1080p.BluRay.x264-USURY 8.36GB

[复制链接]
蓝光币
733
发表于 2021-10-23 12:03:22 | 显示全部楼层 |阅读模式


◎译  名 舞国豪杰/严酷的舞厅/舞出一片天/舞出爱火花/舞厅王子
◎片  名 Strictly Ballroom
◎年  代 1992
◎产  地 澳大利亚
◎类  别 剧情 / 笑剧 / 恋爱
◎语  言 英语,西班牙语
◎上映日期 1992-08-20
◎豆瓣评分 7.5/10 from 1024 users
◎豆瓣链接 https://movie.douban.com/subject/1306252/
◎片  长 94 分钟
◎导  演 巴兹·鲁赫曼 Baz Luhrmann
◎编  剧 巴兹·鲁赫曼 Baz Luhrmann / 克雷格·皮尔斯 Craig Pearce
◎主  演 比尔·亨特 Bill Hunter
       保罗·莫库利奥 Paul Mercurio
       塔拉·莫里斯 Tara Morice
       巴里·奥托 Barry Otto
       John 'Cha Cha' O'Connell John 'Cha Cha' O'Connell
       克里斯·麦奎德 Kris McQuade
◎标  签 澳大利亚 | 舞蹈 | 恋爱 | 歌舞 | 歌舞片 | 1992 | 澳大利亚电影 | BazLuhrmann
◎简  介


  斯科特(保罗·莫库利奥 Paul Mercurio 饰)诞生于舞蹈世家,在怙恃的耳闻目击之下,年轻帅气的他对舞蹈布满了爱好。布满创意的斯科特喜幸亏传统的舞蹈中加入他自创的新颖舞步,但很明显,呆板的评委并不喜好斯科特的创新。一个名叫芙兰(塔拉·莫里斯 Tara Morice 饰)的女孩找到了斯科特,希望可以与他同伴,斯科特地外的发现,他和芙兰之间的节奏异常合拍,在密切无间的合作下,真挚的感情在两个年轻人之间发生了。
  
  斯科特的母亲雪莉(Pat Thomson 饰)对于其貌不扬的芙兰并不满足,她找到了美艳奔放的缇娜(Sonia Kruger 饰),希望她可以成为斯科特的新舞伴,斯科特固然拒绝,可为了实现自己的目标,雪莉居然不惜利用假话强逼斯科特就范。在疾苦当中,斯科特放弃了芙兰。
◎获奖情况
  第45届戛纳电影节 ?(1992)
  青年电影奖本国电影 巴兹·鲁赫曼
  
  第51届金球奖 ?(1994)
  电影类最好音乐/笑剧片(提名)
  
  第46届英国电影学院奖 ?(1993)
  电影奖最好影片(提名) 特里斯特拉姆·迈阿尔?/?巴兹·鲁赫曼
  电影奖最好女配角(提名) 塔拉·莫里斯
  电影奖最好改编剧本(提名) 巴兹·鲁赫曼?/?克雷格·皮尔斯
  电影奖最好剪辑(提名) 吉尔·比尔科克
  电影奖最好打扮设想 安格斯·斯特拉西?/?凯瑟琳·马丁
  电影奖最好艺术指导 凯瑟琳·马丁
  电影奖最好原创音乐 大卫·赫希费尔德
  电影奖最好音效(提名) 本·奥斯莫?/?罗杰·萨维奇?/?菲尔·裘德?/?安东尼·格雷?/?伊恩·麦克劳林
  1. Video
  2. ID                                       : 1
  3. Format                                   : AVC
  4. Format/Info                              : Advanced Video Codec
  5. Format profile                           : [email protected]
  6. Format settings                          : CABAC / 4 Ref Frames
  7. Format settings, CABAC                   : Yes
  8. Format settings, Reference frames        : 4 frames
  9. Codec ID                                 : V_MPEG4/ISO/AVC
  10. Duration                                 : 1 h 34 min
  11. Bit rate                                 : 10.4 Mb/s
  12. Width                                    : 1 920 pixels
  13. Height                                   : 1 080 pixels
  14. Display aspect ratio                     : 16:9
  15. Frame rate mode                          : Constant
  16. Frame rate                               : 23.976 (24000/1001/189150) FPS
  17. Color space                              : YUV
  18. Chroma subsampling                       : 4:2:0
  19. Bit depth                                : 8 bits
  20. Scan type                                : Progressive
  21. Bits/(Pixel*Frame)                       : 0.208
  22. Stream size                              : 6.86 GiB (82%)
  23. Writing library                          : x264 core 164 r3075 66a5bc1
  24. Encoding settings                        : cabac=1 / ref=4 / deblock=1:-3:-3 / analyse=0x3:0x133 / me=umh / subme=10 / psy=1 / psy_rd=1.00:0.15 / mixed_ref=1 / me_range=24 / chroma_me=1 / trellis=2 / 8x8dct=1 / cqm=0 / deadzone=21,11 / fast_pskip=1 / chroma_qp_offset=-3 / threads=18 / lookahead_threads=3 / sliced_threads=0 / nr=0 / decimate=1 / interlaced=0 / bluray_compat=0 / constrained_intra=0 / bframes=8 / b_pyramid=2 / b_adapt=2 / b_bias=0 / direct=3 / weightb=1 / open_gop=0 / weightp=2 / keyint=250 / keyint_min=23 / scenecut=40 / intra_refresh=0 / rc_lookahead=60 / rc=crf / mbtree=1 / crf=17.0 / qcomp=0.60 / qpmin=0 / qpmax=69 / qpstep=4 / ip_ratio=1.40 / aq=3:0.50
  25. Language                                 : English
  26. Default                                  : Yes
  27. Forced                                   : No
  28. Color range                              : Limited
  29. Matrix coefficients                      : BT.709

  30. Audio #1
  31. ID                                       : 2
  32. Format                                   : DTS XLL
  33. Format/Info                              : Digital Theater Systems
  34. Commercial name                          : DTS-HD Master Audio
  35. Codec ID                                 : A_DTS
  36. Duration                                 : 1 h 34 min
  37. Bit rate mode                            : Variable
  38. Bit rate                                 : 2 082 kb/s
  39. Channel(s)                               : 6 channels
  40. Channel layout                           : C L R Ls Rs LFE
  41. Sampling rate                            : 48.0 kHz
  42. Frame rate                               : 93.750 FPS (512 SPF)
  43. Bit depth                                : 16 bits
  44. Compression mode                         : Lossless
  45. Stream size                              : 1.38 GiB (17%)
  46. Language                                 : English
  47. Default                                  : Yes
  48. Forced                                   : No

  49. Audio #2
  50. ID                                       : 3
  51. Format                                   : AAC LC
  52. Format/Info                              : Advanced Audio Codec Low Complexity
  53. Codec ID                                 : A_AAC-2
  54. Duration                                 : 1 h 34 min
  55. Bit rate                                 : 111 kb/s
  56. Channel(s)                               : 2 channels
  57. Channel layout                           : L R
  58. Sampling rate                            : 48.0 kHz
  59. Frame rate                               : 46.875 FPS (1024 SPF)
  60. Compression mode                         : Lossy
  61. Delay relative to video                  : 9 ms
  62. Stream size                              : 75.1 MiB (1%)
  63. Title                                    : English Commentary by Baz Luhrmann, John O\'Connelll and Catherine Martin
  64. Language                                 : English
  65. Default                                  : No
  66. Forced                                   : No

  67. Text #1
  68. ID                                       : 4
  69. Format                                   : UTF-8
  70. Codec ID                                 : S_TEXT/UTF8
  71. Codec ID/Info                            : UTF-8 Plain Text
  72. Duration                                 : 1 h 26 min
  73. Bit rate                                 : 50 b/s
  74. Count of elements                        : 998
  75. Stream size                              : 32.1 KiB (0%)
  76. Title                                    : English
  77. Language                                 : English
  78. Default                                  : No
  79. Forced                                   : No

  80. Text #2
  81. ID                                       : 5
  82. Format                                   : PGS
  83. Muxing mode                              : zlib
  84. Codec ID                                 : S_HDMV/PGS
  85. Codec ID/Info                            : Picture based subtitle format used on BDs/HD-DVDs
  86. Duration                                 : 1 h 26 min
  87. Bit rate                                 : 20.6 kb/s
  88. Count of elements                        : 1995
  89. Stream size                              : 12.7 MiB (0%)
  90. Title                                    : English
  91. Language                                 : English
  92. Default                                  : No
  93. Forced                                   : No

  94. Text #3
  95. ID                                       : 6
  96. Format                                   : UTF-8
  97. Codec ID                                 : S_TEXT/UTF8
  98. Codec ID/Info                            : UTF-8 Plain Text
  99. Duration                                 : 1 h 26 min
  100. Bit rate                                 : 63 b/s
  101. Count of elements                        : 1019
  102. Stream size                              : 39.8 KiB (0%)
  103. Title                                    : German
  104. Language                                 : German
  105. Default                                  : No
  106. Forced                                   : No

  107. Text #4
  108. ID                                       : 7
  109. Format                                   : PGS
  110. Muxing mode                              : zlib
  111. Codec ID                                 : S_HDMV/PGS
  112. Codec ID/Info                            : Picture based subtitle format used on BDs/HD-DVDs
  113. Duration                                 : 1 h 26 min
  114. Bit rate                                 : 17.8 kb/s
  115. Count of elements                        : 2009
  116. Stream size                              : 10.9 MiB (0%)
  117. Title                                    : German
  118. Language                                 : German
  119. Default                                  : No
  120. Forced                                   : No

  121. Text #5
  122. ID                                       : 8
  123. Format                                   : UTF-8
  124. Codec ID                                 : S_TEXT/UTF8
  125. Codec ID/Info                            : UTF-8 Plain Text
  126. Duration                                 : 1 h 33 min
  127. Bit rate                                 : 94 b/s
  128. Count of elements                        : 1275
  129. Stream size                              : 65.0 KiB (0%)
  130. Title                                    : German Commentary by Baz Luhrmann, John O\'Connelll and Catherine Martin
  131. Language                                 : German
  132. Default                                  : No
  133. Forced                                   : No

  134. Text #6
  135. ID                                       : 9
  136. Format                                   : PGS
  137. Muxing mode                              : zlib
  138. Codec ID                                 : S_HDMV/PGS
  139. Codec ID/Info                            : Picture based subtitle format used on BDs/HD-DVDs
  140. Duration                                 : 1 h 33 min
  141. Bit rate                                 : 36.0 kb/s
  142. Count of elements                        : 2543
  143. Stream size                              : 24.2 MiB (0%)
  144. Title                                    : German Commentary by Baz Luhrmann, John O\'Connelll and Catherine Martin
  145. Language                                 : German
  146. Default                                  : No
  147. Forced                                   : No

  148. Menu
  149. 00:00:00.000                             : en:00:00:00.000
  150. 00:08:42.856                             : en:00:08:42.856
  151. 00:17:03.689                             : en:00:17:03.689
  152. 00:23:52.598                             : en:00:23:52.598
  153. 00:29:51.540                             : en:00:29:51.540
  154. 00:33:39.517                             : en:00:33:39.517
  155. 00:40:19.417                             : en:00:40:19.417
  156. 00:47:54.205                             : en:00:47:54.205
  157. 00:56:25.132                             : en:00:56:25.132
  158. 01:03:52.996                             : en:01:03:52.996
  159. 01:11:40.963                             : en:01:11:40.963
  160. 01:22:32.781                             : en:01:22:32.781
  161. 01:28:54.579                             : en:01:28:54.579
复制代码





                                       
                                       

                                       
                                       
                                       




回复

使用道具 举报

懒得打字嘛,点击右侧快捷回复 【右侧内容,后台自定义】
您需要登录后才可以回帖 登录 | 立即加入

本版积分规则

Archiver|小黑屋| 蓝光电影网 |网站地图

Copyright © 2021 Comsenz Inc. Powered by 蓝光电影网

蓝光电影网

本站内容由用户自主分享和转载自互联网,转载目的在于传递更多信息,并不代表本网赞同其观点和对其真实性负责。

如有侵权、违反国家法律政策行为,请联系我们,我们会第一时间及时清除和处理!

举报反馈邮箱:[email protected]

快速回复 返回顶部 返回列表