找回密码

蓝光电影网

查看: 162|回复: 0

[剧情] 盲点 Blind.Spot.1993.1080p.AMZN.WEBRip.AAC2.0.x264-TEPES 7.01GB

[复制链接]
蓝光币
733
发表于 2021-10-23 13:27:13 | 显示全部楼层 |阅读模式


◎译  名 盲点
◎片  名 Blind Spot
◎年  代 1993
◎产  地 美国
◎类  别 剧情
◎语  言 英语
◎上映日期 1993-05-02
◎IMDb评分  6/10 from 173 users
◎IMDb链接  https://www.imdb.com/title/tt0106427/
◎豆瓣评分 /10 from 0 users
◎豆瓣链接 https://movie.douban.com/subject/2310024/
◎片  长 120分钟
◎导  演 宇野敏行 Michael Toshiyuki Uno
◎编  剧 Ellen M. Violett Ellen M. Violett
◎主  演 温明娜 Ming-Na Wen
       乔安娜·伍德沃德 Joanne Woodward
       劳拉·琳妮 Laura Linney
       Mark Joy Mark Joy
       Mark Anthony Wade Mark Anthony Wade
       艾莉森·珍妮 Allison Janney
       玛丽·路易丝·威尔逊 Mary Louise Wilson
       佩蒂·安武 Patti Yasutake
       弗里茨·韦弗 Fritz Weaver
       大卫·桑顿 David Thornton
       里德·戴蒙德 Reed Diamond
       卡莉娜·阿罗亚维 Karina Arroyave
       帕蒂·达班维尔 Patti D'Arbanville
       Edmund Genest Edmund Genest
◎标  签 美国 | 正大戏院 | 电影 | 美国电影 | 童年回忆 | 盲点 | 剧情 | hallmark
◎简  介


  Drama about a couple (Woodward, Weaver) and their problematic daughter (Linney) who is a cocaine addict.
  1. Video
  2. ID                                       : 1
  3. Format                                   : AVC
  4. Format/Info                              : Advanced Video Codec
  5. Format profile                           : [email protected]
  6. Format settings                          : CABAC / 4 Ref Frames
  7. Format settings, CABAC                   : Yes
  8. Format settings, Reference frames        : 4 frames
  9. Format settings, GOP                     : M=4, N=48
  10. Codec ID                                 : V_MPEG4/ISO/AVC
  11. Duration                                 : 1 h 39 min
  12. Bit rate mode                            : Constant
  13. Bit rate                                 : 10 000 kb/s
  14. Width                                    : 1 920 pixels
  15. Height                                   : 1 080 pixels
  16. Display aspect ratio                     : 16:9
  17. Frame rate mode                          : Constant
  18. Frame rate                               : 23.976 (24000/1001/189150) FPS
  19. Color space                              : YUV
  20. Chroma subsampling                       : 4:2:0
  21. Bit depth                                : 8 bits
  22. Scan type                                : Progressive
  23. Bits/(Pixel*Frame)                       : 0.201
  24. Stream size                              : 6.92 GiB (99%)
  25. Language                                 : English
  26. Default                                  : Yes
  27. Forced                                   : No
  28. Color range                              : Limited
  29. Color primaries                          : BT.709
  30. Transfer characteristics                 : BT.709
  31. Matrix coefficients                      : BT.709
  32. Audio
  33. ID                                       : 2
  34. Format                                   : AAC LC
  35. Format/Info                              : Advanced Audio Codec Low Complexity
  36. Codec ID                                 : A_AAC-2
  37. Duration                                 : 1 h 39 min
  38. Bit rate                                 : 125 kb/s
  39. Channel(s)                               : 2 channels
  40. Channel layout                           : L R
  41. Sampling rate                            : 48.0 kHz
  42. Frame rate                               : 46.875 FPS (1024 SPF)
  43. Compression mode                         : Lossy
  44. Stream size                              : 89.1 MiB (1%)
  45. Language                                 : English
  46. Default                                  : Yes
  47. Forced                                   : No
  48. Text #1
  49. ID                                       : 3
  50. Format                                   : UTF-8
  51. Codec ID                                 : S_TEXT/UTF8
  52. Codec ID/Info                            : UTF-8 Plain Text
  53. Duration                                 : 1 h 37 min
  54. Bit rate                                 : 78 b/s
  55. Count of elements                        : 1787
  56. Stream size                              : 56.1 KiB (0%)
  57. Language                                 : English
  58. Default                                  : No
  59. Forced                                   : No
  60. Text #2
  61. ID                                       : 4
  62. Format                                   : UTF-8
  63. Codec ID                                 : S_TEXT/UTF8
  64. Codec ID/Info                            : UTF-8 Plain Text
  65. Duration                                 : 1 h 37 min
  66. Bit rate                                 : 80 b/s
  67. Count of elements                        : 1853
  68. Stream size                              : 57.6 KiB (0%)
  69. Title                                    : SDH
  70. Language                                 : English
  71. Default                                  : No
  72. Forced                                   : No
复制代码







                                       
                                       

                                       
                                       
                                       




回复

使用道具 举报

懒得打字嘛,点击右侧快捷回复 【右侧内容,后台自定义】
您需要登录后才可以回帖 登录 | 立即加入

本版积分规则

Archiver|小黑屋| 蓝光电影网 |网站地图

Copyright © 2021 Comsenz Inc. Powered by 蓝光电影网

蓝光电影网

本站内容由用户自主分享和转载自互联网,转载目的在于传递更多信息,并不代表本网赞同其观点和对其真实性负责。

如有侵权、违反国家法律政策行为,请联系我们,我们会第一时间及时清除和处理!

举报反馈邮箱:[email protected]

快速回复 返回顶部 返回列表