找回密码

蓝光电影网

查看: 530|回复: 2

[2160p-WEB] 戴高乐 De.Gaulle.2020.FRENCH.2160p.WEB-DL.x265.10bit.SDR.DTS-HD.MA.5.1-NOGRP 11.39GB

[复制链接]
蓝光币
621
发表于 2021-10-23 14:45:06 | 显示全部楼层 |阅读模式


◎译  名 戴高乐
◎片  名 De Gaulle
◎年  代 2020
◎产  地 法国
◎类  别 列传 / 历史
◎语  言 法语
◎上映日期 2020-03-04(法国)
◎豆瓣评分 6.0/10 from 274 users
◎豆瓣链接 https://movie.douban.com/subject/34918949/
◎片  长 107分钟
◎导  演 加布里埃尔·勒博明 Gabriel Le Bomin
◎编  剧 加布里埃尔·勒博明 Gabriel Le Bomin
◎主  演 朗贝尔·维尔森 Lambert Wilson
       伊莎贝尔·卡雷 Isabelle Carré
       安德鲁·比克内尔 Andrew Bicknell
       奥利维埃·古尔梅 Olivier Gourmet
       索菲·昆汀 Sophie Quinton
       尼古拉斯·罗宾 Nicolas Robin
       维克多·贝尔蒙多 Victor Belmondo
       埃弗琳·布尔 Evelyne Buyle
       蒂姆·哈德森 Tim Hudson
       凯斯特·洛夫莱斯 Kester Lovelace
       德里克·西蒙·罗宾 Derek Simon Robin
       凯瑟琳·蒙切特 Catherine Mouchet
◎标  签 法国 | 列传 | 二战 | 历史 | 列传片 | 2020 | 法国电影 | 战争
◎简  介


  1940年6月,巴黎,戴高乐佳耦面临法国的军事和政治上的解体,戴高乐挑选奔赴伦敦继续抗战,而他的妻子伊冯则与三个孩子一路踏上远赴埃及之路。
◎获奖情况
  第46届法国凯撒电影奖 ?(2021)
  最好男配角(提名) 朗贝尔·维尔森
  最好打扮(提名)
  最好布景(提名)
  1. Video
  2. ID                                       : 1
  3. Format                                   : HEVC
  4. Format/Info                              : High Efficiency Video Coding
  5. Format profile                           : Main [email protected]@High
  6. Codec ID                                 : V_MPEGH/ISO/HEVC
  7. Duration                                 : 1 h 48 min
  8. Bit rate                                 : 12.0 Mb/s
  9. Width                                    : 3 836 pixels
  10. Height                                   : 1 604 pixels
  11. Display aspect ratio                     : 2.40:1
  12. Frame rate mode                          : Constant
  13. Frame rate                               : 24.000 FPS
  14. Color space                              : YUV
  15. Chroma subsampling                       : 4:2:0
  16. Bit depth                                : 10 bits
  17. Bits/(Pixel*Frame)                       : 0.081
  18. Stream size                              : 9.15 GiB (80%)
  19. Default                                  : Yes
  20. Forced                                   : No
  21. Color range                              : Limited
  22. Color primaries                          : BT.709
  23. Transfer characteristics                 : BT.709
  24. Matrix coefficients                      : BT.709

  25. Audio #1
  26. ID                                       : 2
  27. Format                                   : DTS XLL
  28. Format/Info                              : Digital Theater Systems
  29. Commercial name                          : DTS-HD Master Audio
  30. Codec ID                                 : A_DTS
  31. Duration                                 : 1 h 48 min
  32. Bit rate mode                            : Variable
  33. Bit rate                                 : 2 545 kb/s
  34. Channel(s)                               : 6 channels
  35. Channel layout                           : C L R Ls Rs LFE
  36. Sampling rate                            : 48.0 kHz
  37. Frame rate                               : 93.750 FPS (512 SPF)
  38. Bit depth                                : 24 bits
  39. Compression mode                         : Lossless
  40. Stream size                              : 1.94 GiB (17%)
  41. Title                                    : DTS-HD MA 5.1
  42. Language                                 : French
  43. Default                                  : Yes
  44. Forced                                   : No

  45. Audio #2
  46. ID                                       : 3
  47. Format                                   : AC-3
  48. Format/Info                              : Audio Coding 3
  49. Commercial name                          : Dolby Digital
  50. Codec ID                                 : A_AC3
  51. Duration                                 : 1 h 48 min
  52. Bit rate mode                            : Constant
  53. Bit rate                                 : 384 kb/s
  54. Channel(s)                               : 6 channels
  55. Channel layout                           : L R C LFE Ls Rs
  56. Sampling rate                            : 48.0 kHz
  57. Frame rate                               : 31.250 FPS (1536 SPF)
  58. Compression mode                         : Lossy
  59. Stream size                              : 299 MiB (3%)
  60. Title                                    : DD 5.1
  61. Language                                 : French
  62. Service kind                             : Complete Main
  63. Default                                  : No
  64. Forced                                   : No

  65. Text #1
  66. ID                                       : 4
  67. Format                                   : UTF-8
  68. Codec ID                                 : S_TEXT/UTF8
  69. Codec ID/Info                            : UTF-8 Plain Text
  70. Duration                                 : 1 h 47 min
  71. Bit rate                                 : 53 b/s
  72. Count of elements                        : 1177
  73. Stream size                              : 42.2 KiB (0%)
  74. Title                                    : English
  75. Language                                 : English
  76. Default                                  : Yes
  77. Forced                                   : Yes

  78. Text #2
  79. ID                                       : 5
  80. Format                                   : UTF-8
  81. Codec ID                                 : S_TEXT/UTF8
  82. Codec ID/Info                            : UTF-8 Plain Text
  83. Duration                                 : 1 h 48 min
  84. Bit rate                                 : 63 b/s
  85. Count of elements                        : 1559
  86. Stream size                              : 50.5 KiB (0%)
  87. Title                                    : French (SDH)
  88. Language                                 : French
  89. Default                                  : No
  90. Forced                                   : No

  91. Text #3
  92. ID                                       : 6
  93. Format                                   : PGS
  94. Muxing mode                              : zlib
  95. Codec ID                                 : S_HDMV/PGS
  96. Codec ID/Info                            : Picture based subtitle format used on BDs/HD-DVDs
  97. Duration                                 : 1 h 48 min
  98. Bit rate                                 : 34.8 kb/s
  99. Count of elements                        : 3116
  100. Stream size                              : 27.0 MiB (0%)
  101. Language                                 : French
  102. Default                                  : No
  103. Forced                                   : No

  104. Menu
  105. 00:00:00.000                             : en:Chapter 01
  106. 00:09:17.208                             : en:Chapter 02
  107. 00:19:37.958                             : en:Chapter 03
  108. 00:29:47.875                             : en:Chapter 04
  109. 00:39:59.291                             : en:Chapter 05
  110. 00:49:58.583                             : en:Chapter 06
  111. 00:59:42.041                             : en:Chapter 07
  112. 01:09:14.375                             : en:Chapter 08
  113. 01:21:24.458                             : en:Chapter 09
  114. 01:29:48.791                             : en:Chapter 10
  115. 01:38:38.458                             : en:Chapter 11
  116. 01:45:04.708                             : en:Chapter 12
复制代码




                                       
                                       

                                       
                                       
                                       




回复

使用道具 举报

蓝光币
37
发表于 2021-10-25 00:00:44 | 显示全部楼层

我看不错噢 谢谢楼主!蓝光电影网越来越好!
回复 支持 反对

使用道具 举报

蓝光币
131
发表于 2021-10-25 07:58:54 | 显示全部楼层
楼主发贴辛苦了,谢谢楼主分享!我觉得蓝光电影网是注册对了!
回复 支持 反对

使用道具 举报

懒得打字嘛,点击右侧快捷回复 【右侧内容,后台自定义】
您需要登录后才可以回帖 登录 | 立即加入

本版积分规则

Archiver|小黑屋| 蓝光电影网 |网站地图

Copyright © 2021 Comsenz Inc. Powered by 蓝光电影网

蓝光电影网

本站内容由用户自主分享和转载自互联网,转载目的在于传递更多信息,并不代表本网赞同其观点和对其真实性负责。

如有侵权、违反国家法律政策行为,请联系我们,我们会第一时间及时清除和处理!

举报反馈邮箱:[email protected]

快速回复 返回顶部 返回列表