找回密码

蓝光电影网

查看: 389|回复: 3

[喜剧] 疯狂的女孩 Girl.Crazy.1943.720p.BluRay.x264-ORBS 4.06GB

[复制链接]
蓝光币
682
发表于 2021-10-23 16:14:39 | 显示全部楼层 |阅读模式


◎译  名 疯狂的女孩
◎片  名 Girl Crazy
◎年  代 1943
◎产  地 美国
◎类  别 笑剧 / 恋爱 / 歌舞
◎语  言 英语
◎上映日期 1943-11-26
◎豆瓣评分 /10 from 0 users
◎豆瓣链接 https://movie.douban.com/subject/1295378/
◎片  长 99 分钟
◎编  剧 多萝西·金斯利 Dorothy Kingsley
◎主  演 米基·鲁尼 Mickey Rooney
       朱迪·加兰 Judy Garland
◎标  签 歌舞 | 笑剧 | 美国 | 恋爱 | 歌舞片 | Judy_Garland | 黑白 | 老片
◎简  介


  暂无相关剧情先容
  1. Video
  2. ID                                       : 1
  3. Format                                   : AVC
  4. Format/Info                              : Advanced Video Codec
  5. Format profile                           : [email protected]
  6. Format settings                          : CABAC / 11 Ref Frames
  7. Format settings, CABAC                   : Yes
  8. Format settings, Reference frames        : 11 frames
  9. Codec ID                                 : V_MPEG4/ISO/AVC
  10. Duration                                 : 1 h 38 min
  11. Bit rate                                 : 5 493 kb/s
  12. Width                                    : 986 pixels
  13. Height                                   : 720 pixels
  14. Display aspect ratio                     : 4:3
  15. Frame rate mode                          : Constant
  16. Frame rate                               : 23.976 (24000/1001/189150) FPS
  17. Color space                              : YUV
  18. Chroma subsampling                       : 4:2:0
  19. Bit depth                                : 8 bits
  20. Scan type                                : Progressive
  21. Bits/(Pixel*Frame)                       : 0.323
  22. Stream size                              : 3.79 GiB (93%)
  23. Writing library                          : x264 core 164 r3065 ae03d92
  24. Encoding settings                        : cabac=1 / ref=11 / deblock=1:-3:-3 / analyse=0x3:0x133 / me=umh / subme=10 / psy=1 / psy_rd=1.50:0.15 / mixed_ref=1 / me_range=24 / chroma_me=1 / trellis=2 / 8x8dct=1 / cqm=0 / deadzone=21,11 / fast_pskip=0 / chroma_qp_offset=-3 / threads=22 / lookahead_threads=3 / sliced_threads=0 / nr=0 / decimate=0 / interlaced=0 / bluray_compat=0 / constrained_intra=0 / bframes=8 / b_pyramid=2 / b_adapt=2 / b_bias=0 / direct=3 / weightb=1 / open_gop=0 / weightp=2 / keyint=250 / keyint_min=23 / scenecut=40 / intra_refresh=0 / rc_lookahead=60 / rc=crf / mbtree=1 / crf=17.0 / qcomp=0.60 / qpmin=0 / qpmax=69 / qpstep=4 / ip_ratio=1.40 / aq=3:0.50
  25. Default                                  : Yes
  26. Forced                                   : No
  27. Color range                              : Limited
  28. Matrix coefficients                      : BT.709

  29. Audio #1
  30. ID                                       : 2
  31. Format                                   : FLAC
  32. Format/Info                              : Free Lossless Audio Codec
  33. Codec ID                                 : A_FLAC
  34. Duration                                 : 1 h 38 min
  35. Bit rate mode                            : Variable
  36. Bit rate                                 : 271 kb/s
  37. Channel(s)                               : 2 channels
  38. Channel layout                           : L R
  39. Sampling rate                            : 48.0 kHz
  40. Frame rate                               : 11.719 FPS (4096 SPF)
  41. Bit depth                                : 16 bits
  42. Compression mode                         : Lossless
  43. Stream size                              : 191 MiB (5%)
  44. Writing library                          : libFLAC 1.3.3 (UTC 2019-08-04)
  45. Language                                 : English
  46. Default                                  : Yes
  47. Forced                                   : No

  48. Audio #2
  49. ID                                       : 3
  50. Format                                   : AAC LC
  51. Format/Info                              : Advanced Audio Codec Low Complexity
  52. Codec ID                                 : A_AAC-2
  53. Duration                                 : 1 h 38 min
  54. Bit rate                                 : 96.0 kb/s
  55. Channel(s)                               : 2 channels
  56. Channel layout                           : L R
  57. Sampling rate                            : 48.0 kHz
  58. Frame rate                               : 46.875 FPS (1024 SPF)
  59. Compression mode                         : Lossy
  60. Delay relative to video                  : 20 ms
  61. Stream size                              : 68.0 MiB (2%)
  62. Title                                    : Commentary
  63. Language                                 : English
  64. Default                                  : No
  65. Forced                                   : No

  66. Text
  67. ID                                       : 4
  68. Format                                   : PGS
  69. Muxing mode                              : zlib
  70. Codec ID                                 : S_HDMV/PGS
  71. Codec ID/Info                            : Picture based subtitle format used on BDs/HD-DVDs
  72. Duration                                 : 1 h 38 min
  73. Bit rate                                 : 41.8 kb/s
  74. Count of elements                        : 3520
  75. Stream size                              : 29.5 MiB (1%)
  76. Title                                    : SDH
  77. Language                                 : English
  78. Default                                  : No
  79. Forced                                   : No

  80. Menu
  81. 00:00:00.000                             : Chapter 01
  82. 00:01:43.103                             : Chapter 02
  83. 00:03:18.156                             : Chapter 03
  84. 00:07:49.219                             : Chapter 04
  85. 00:11:20.221                             : Chapter 05
  86. 00:15:53.744                             : Chapter 06
  87. 00:19:14.362                             : Chapter 07
  88. 00:23:13.934                             : Chapter 08
  89. 00:25:47.880                             : Chapter 09
  90. 00:31:25.717                             : Chapter 10
  91. 00:34:46.668                             : Chapter 11
  92. 00:36:33.108                             : Chapter 12
  93. 00:40:12.535                             : Chapter 13
  94. 00:41:28.986                             : Chapter 14
  95. 00:46:23.823                             : Chapter 15
  96. 00:48:20.314                             : Chapter 16
  97. 00:51:22.246                             : Chapter 17
  98. 00:56:01.733                             : Chapter 18
  99. 00:59:50.253                             : Chapter 19
  100. 01:02:12.270                             : Chapter 20
  101. 01:05:26.089                             : Chapter 21
  102. 01:09:03.639                             : Chapter 22
  103. 01:11:21.402                             : Chapter 23
  104. 01:16:53.025                             : Chapter 24
  105. 01:20:48.844                             : Chapter 25
  106. 01:23:57.824                             : Chapter 26
  107. 01:24:45.330                             : Chapter 27
  108. 01:27:41.298                             : Chapter 28
  109. 01:31:03.541                             : Chapter 29
  110. 01:34:09.769                             : Chapter 30
  111. 01:37:10.283                             : Chapter 31
  112. 01:38:32.824                             : Chapter 32
  113. 01:38:40.331                             : Chapter 33
复制代码




                                       
                                       

                                       
                                       
                                       




回复

使用道具 举报

蓝光币
4
发表于 2021-10-24 13:53:38 | 显示全部楼层

我看不错噢 谢谢楼主!蓝光电影网越来越好!
回复 支持 反对

使用道具 举报

蓝光币
169
发表于 2021-10-25 08:58:32 | 显示全部楼层
楼主发贴辛苦了,谢谢楼主分享!我觉得蓝光电影网是注册对了!
回复 支持 反对

使用道具 举报

蓝光币
30
发表于 2021-10-27 16:09:40 | 显示全部楼层

~ 珍惜+支持 ~
回复

使用道具 举报

懒得打字嘛,点击右侧快捷回复 【右侧内容,后台自定义】
您需要登录后才可以回帖 登录 | 立即加入

本版积分规则

Archiver|小黑屋| 蓝光电影网 |网站地图

Copyright © 2021 Comsenz Inc. Powered by 蓝光电影网

蓝光电影网

本站内容由用户自主分享和转载自互联网,转载目的在于传递更多信息,并不代表本网赞同其观点和对其真实性负责。

如有侵权、违反国家法律政策行为,请联系我们,我们会第一时间及时清除和处理!

举报反馈邮箱:[email protected]

快速回复 返回顶部 返回列表