找回密码

蓝光电影网

查看: 340|回复: 0

[其他] 电影眼漫游印度 Around.India.with.a.Movie.Camera.2018.1080p.BluRay.x264-BiPOLAR 8.50GB

[复制链接]
蓝光币
623
发表于 2021-10-23 16:06:45 | 显示全部楼层 |阅读模式


◎译  名 电影眼周游印度
◎片  名 Around India with a Movie Camera
◎年  代 2018
◎产  地 英国
◎类  别 记载片
◎语  言 英语
◎上映日期 2018-02-02(英国)
◎豆瓣评分 /10 from 0 users
◎豆瓣链接 https://movie.douban.com/subject/34927515/
◎片  长 72分钟
◎标  签 英国记载片 | 2018年 | 2010年月
◎简  介


  Sandhya Suri skilfully weaves together archival footage, including hand-colored sequences, with a new score by Soumik Datta to create an emotionally resonant story about life across India from 1899 to 1947. Drawn exclusively from the BFI National Archive, it features some of the earliest surviving films from India as well as gorgeous travelogues, intimate home movies, and newsreels from British, French and Indian filmmakers.
  1. Video
  2. ID                                       : 1
  3. Format                                   : AVC
  4. Format/Info                              : Advanced Video Codec
  5. Format profile                           : [email protected]
  6. Format settings                          : CABAC / 5 Ref Frames
  7. Format settings, CABAC                   : Yes
  8. Format settings, Reference frames        : 5 frames
  9. Codec ID                                 : V_MPEG4/ISO/AVC
  10. Duration                                 : 1 h 12 min
  11. Bit rate                                 : 16.3 Mb/s
  12. Width                                    : 1 440 pixels
  13. Height                                   : 1 080 pixels
  14. Display aspect ratio                     : 4:3
  15. Frame rate mode                          : Constant
  16. Frame rate                               : 24.000 FPS
  17. Color space                              : YUV
  18. Chroma subsampling                       : 4:2:0
  19. Bit depth                                : 8 bits
  20. Scan type                                : Progressive
  21. Bits/(Pixel*Frame)                       : 0.437
  22. Stream size                              : 8.30 GiB (98%)
  23. Writing library                          : x264 core 164 r3075 66a5bc1
  24. Encoding settings                        : cabac=1 / ref=5 / deblock=1:-3:-3 / analyse=0x3:0x133 / me=umh / subme=10 / psy=1 / psy_rd=1.00:0.15 / mixed_ref=1 / me_range=24 / chroma_me=1 / trellis=2 / 8x8dct=1 / cqm=0 / deadzone=21,11 / fast_pskip=1 / chroma_qp_offset=-3 / threads=18 / lookahead_threads=3 / sliced_threads=0 / nr=0 / decimate=1 / interlaced=0 / bluray_compat=0 / constrained_intra=0 / bframes=8 / b_pyramid=2 / b_adapt=2 / b_bias=0 / direct=3 / weightb=1 / open_gop=0 / weightp=2 / keyint=250 / keyint_min=24 / scenecut=40 / intra_refresh=0 / rc_lookahead=60 / rc=crf / mbtree=1 / crf=20.5 / qcomp=0.60 / qpmin=0 / qpmax=69 / qpstep=4 / ip_ratio=1.40 / aq=3:0.50
  25. Language                                 : English
  26. Default                                  : Yes
  27. Forced                                   : No

  28. Audio
  29. ID                                       : 2
  30. Format                                   : FLAC
  31. Format/Info                              : Free Lossless Audio Codec
  32. Codec ID                                 : A_FLAC
  33. Duration                                 : 1 h 12 min
  34. Bit rate mode                            : Variable
  35. Bit rate                                 : 401 kb/s
  36. Channel(s)                               : 2 channels
  37. Channel layout                           : L R
  38. Sampling rate                            : 48.0 kHz
  39. Frame rate                               : 11.719 FPS (4096 SPF)
  40. Bit depth                                : 16 bits
  41. Compression mode                         : Lossless
  42. Stream size                              : 209 MiB (2%)
  43. Writing library                          : libFLAC 1.2.1 (UTC 2007-09-17)
  44. Language                                 : English
  45. Default                                  : Yes
  46. Forced                                   : No

  47. Menu
  48. 00:00:00.000                             : en:00:00:00.000
  49. 00:04:23.625                             : en:00:04:23.625
  50. 00:10:07.542                             : en:00:10:07.542
  51. 00:17:43.833                             : en:00:17:43.833
  52. 00:22:00.708                             : en:00:22:00.708
  53. 00:25:05.500                             : en:00:25:05.500
  54. 00:30:11.500                             : en:00:30:11.500
  55. 00:33:27.875                             : en:00:33:27.875
  56. 00:38:03.667                             : en:00:38:03.667
  57. 00:40:02.750                             : en:00:40:02.750
  58. 00:45:35.583                             : en:00:45:35.583
  59. 00:50:08.708                             : en:00:50:08.708
  60. 00:53:37.417                             : en:00:53:37.417
  61. 01:02:40.000                             : en:01:02:40.000
  62. 01:08:08.625                             : en:01:08:08.625
复制代码





                                       
                                       

                                       
                                       
                                       




回复

使用道具 举报

懒得打字嘛,点击右侧快捷回复 【右侧内容,后台自定义】
您需要登录后才可以回帖 登录 | 立即加入

本版积分规则

Archiver|小黑屋| 蓝光电影网 |网站地图

Copyright © 2021 Comsenz Inc. Powered by 蓝光电影网

蓝光电影网

本站内容由用户自主分享和转载自互联网,转载目的在于传递更多信息,并不代表本网赞同其观点和对其真实性负责。

如有侵权、违反国家法律政策行为,请联系我们,我们会第一时间及时清除和处理!

举报反馈邮箱:[email protected]

快速回复 返回顶部 返回列表