找回密码

蓝光电影网

查看: 252|回复: 2

[惊悚] 玻璃屋/玻璃屋的秘密 The.Glass.House.2001.720p.BluRay.x264-FREEMAN 4.72GB

[复制链接]
蓝光币
623
发表于 2021-10-23 17:48:33 | 显示全部楼层 |阅读模式


◎译  名 玻璃屋/玻璃屋的奥秘
◎片  名 The Glass House
◎年  代 2001
◎产  地 美国
◎类  别 惊悚
◎语  言 英语,西班牙语
◎上映日期 2001-09-14(美国)
◎豆瓣评分 6.6/10 from 1114 users
◎豆瓣链接 https://movie.douban.com/subject/1296441/
◎片  长 106分钟
◎导  演 丹尼尔·沙克海姆 Daniel Sackheim
◎编  剧 韦斯利·斯崔克 Wesley Strick
◎主  演 戴安·琳恩 Diane Lane
       莉莉·索博斯基 Leelee Sobieski
       斯特兰·斯卡斯加德 Stellan Skarsg?rd
       Alice Hirson Alice Hirson
       Michele Nordin Michele Nordin
       德鲁斯奈德 Drew Snyder
       D.埃利奥特·伍兹 D. Elliot Woods
       卡莉·波普 Carly Pope
       布伦特·塞克斯顿 Brent Sexton
       朱莉娅·维拉 Julia Vera
       加文·欧康诺 Gavin O'Connor
       玛雅·丹齐格 Maia Danziger
       迈克尔·保罗·陈 Michael Paul Chan
       詹纽瑞·琼斯 January Jones
       布鲁斯·邓恩 Bruce Dern
       艾格尼丝·布鲁根 Agnes Bruckner
       特拉沃·摩根 Trevor Morgan
       克里斯·诺斯 Chris Noth
       丽塔·威尔逊 Rita Wilson
       蕾切尔·威尔森 Rachel Wilson
       迈克尔·奥吉弗 Michael O'Keefe
       约翰·比灵斯列 John Billingsley
       凯西·贝克 Kathy Baker
       齐纳·萨维尔斯 China Shavers
       拉特安亚·阿尔达 Rutanya Alda
       艾瑞克·阿瓦利 Erick Avari
◎标  签 惊悚 | 悬疑 | 美国 | 美国电影 | 2001 | 犯罪 | 电影 | 丽丽·索伯斯基
◎简  介


  露比(莉莉·索博斯基 Leelee Sobieski 饰)和雷特(特拉沃·摩根 Trevor Morgan 饰)的怙恃在一场车祸中不幸丧生,姐弟两人就此成为了孤苦孤立的孤儿。在这个节骨眼上,怙恃生前的好友艾琳(黛安·莲恩 Diane Lane 饰)和特里(斯特兰·斯卡斯加德 Stellan Skarsg?rd 饰)佳耦两人漂亮的收留了行将被丧亡孤儿院的两个孩子,他们位于马利布市的奢华别墅成为了姐弟两人的第二个家,在那边,露比和雷特吃穿不愁,过着优渥富足的生活。
  
  但是,这样的日子并没有延续多久,随着时候的推移,露比渐渐发现,养怙恃善良温柔的面具底下,似乎隐藏着可怖的一面。不但如此,杀死姐弟两怙恃的那场车祸,似乎和艾琳与特里有着千丝万缕的关联。
  1. Video
  2. ID                                       : 1
  3. Format                                   : AVC
  4. Format/Info                              : Advanced Video Codec
  5. Format profile                           : [email protected]
  6. Format settings                          : CABAC / 8 Ref Frames
  7. Format settings, CABAC                   : Yes
  8. Format settings, Reference frames        : 8 frames
  9. Codec ID                                 : V_MPEG4/ISO/AVC
  10. Duration                                 : 1 h 46 min
  11. Bit rate                                 : 5 699 kb/s
  12. Width                                    : 1 280 pixels
  13. Height                                   : 544 pixels
  14. Display aspect ratio                     : 2.35:1
  15. Frame rate mode                          : Constant
  16. Frame rate                               : 23.976 (24000/1001/189150) FPS
  17. Color space                              : YUV
  18. Chroma subsampling                       : 4:2:0
  19. Bit depth                                : 8 bits
  20. Scan type                                : Progressive
  21. Bits/(Pixel*Frame)                       : 0.341
  22. Stream size                              : 4.23 GiB (90%)
  23. Writing library                          : x264 core 164 r3075 66a5bc1
  24. Encoding settings                        : cabac=1 / ref=8 / deblock=1:-3:-3 / analyse=0x3:0x133 / me=umh / subme=9 / psy=1 / psy_rd=1.00:0.00 / mixed_ref=1 / me_range=16 / chroma_me=1 / trellis=2 / 8x8dct=1 / cqm=0 / deadzone=21,11 / fast_pskip=0 / chroma_qp_offset=-2 / threads=17 / lookahead_threads=1 / sliced_threads=0 / nr=0 / decimate=1 / interlaced=0 / bluray_compat=0 / constrained_intra=0 / bframes=3 / b_pyramid=2 / b_adapt=2 / b_bias=0 / direct=3 / weightb=1 / open_gop=0 / weightp=2 / keyint=250 / keyint_min=23 / scenecut=40 / intra_refresh=0 / rc_lookahead=60 / rc=crf / mbtree=1 / crf=17.0 / qcomp=0.60 / qpmin=0 / qpmax=69 / qpstep=4 / ip_ratio=1.40 / aq=3:0.60
  25. Default                                  : Yes
  26. Forced                                   : No
  27. Color range                              : Limited
  28. Matrix coefficients                      : BT.709

  29. Audio
  30. ID                                       : 2
  31. Format                                   : AC-3
  32. Format/Info                              : Audio Coding 3
  33. Commercial name                          : Dolby Digital
  34. Codec ID                                 : A_AC3
  35. Duration                                 : 1 h 46 min
  36. Bit rate mode                            : Constant
  37. Bit rate                                 : 640 kb/s
  38. Channel(s)                               : 6 channels
  39. Channel layout                           : L R C LFE Ls Rs
  40. Sampling rate                            : 48.0 kHz
  41. Frame rate                               : 31.250 FPS (1536 SPF)
  42. Compression mode                         : Lossy
  43. Stream size                              : 486 MiB (10%)
  44. Language                                 : English
  45. Service kind                             : Complete Main
  46. Default                                  : Yes
  47. Forced                                   : No

  48. Text #1
  49. ID                                       : 3
  50. Format                                   : PGS
  51. Muxing mode                              : zlib
  52. Codec ID                                 : S_HDMV/PGS
  53. Codec ID/Info                            : Picture based subtitle format used on BDs/HD-DVDs
  54. Duration                                 : 1 h 39 min
  55. Bit rate                                 : 21.6 kb/s
  56. Count of elements                        : 1735
  57. Stream size                              : 15.3 MiB (0%)
  58. Language                                 : English
  59. Default                                  : No
  60. Forced                                   : No

  61. Text #2
  62. ID                                       : 4
  63. Format                                   : PGS
  64. Muxing mode                              : zlib
  65. Codec ID                                 : S_HDMV/PGS
  66. Codec ID/Info                            : Picture based subtitle format used on BDs/HD-DVDs
  67. Duration                                 : 1 h 39 min
  68. Bit rate                                 : 25.1 kb/s
  69. Count of elements                        : 1790
  70. Stream size                              : 17.9 MiB (0%)
  71. Language                                 : German
  72. Default                                  : No
  73. Forced                                   : No

  74. Menu
  75. 00:00:00.000                             : en:00:00:00.000
  76. 00:13:22.802                             : en:00:13:22.802
  77. 00:26:21.580                             : en:00:26:21.580
  78. 00:37:47.265                             : en:00:37:47.265
  79. 00:48:32.910                             : en:00:48:32.910
  80. 01:00:50.647                             : en:01:00:50.647
  81. 01:13:27.403                             : en:01:13:27.403
  82. 01:29:34.369                             : en:01:29:34.369
  83. 01:41:24.078                             : en:01:41:24.078
复制代码





                                       
                                       

                                       
                                       
                                       




回复

使用道具 举报

蓝光币
21
发表于 2021-10-24 17:18:53 | 显示全部楼层
楼主发贴辛苦了,谢谢楼主分享!我觉得蓝光电影网是注册对了!
回复 支持 反对

使用道具 举报

蓝光币
30
发表于 2021-10-27 15:56:45 | 显示全部楼层

论坛不能没有像楼主这样的人才啊!我会一直支持蓝光电影网。
回复 支持 反对

使用道具 举报

懒得打字嘛,点击右侧快捷回复 【右侧内容,后台自定义】
您需要登录后才可以回帖 登录 | 立即加入

本版积分规则

Archiver|小黑屋| 蓝光电影网 |网站地图

Copyright © 2021 Comsenz Inc. Powered by 蓝光电影网

蓝光电影网

本站内容由用户自主分享和转载自互联网,转载目的在于传递更多信息,并不代表本网赞同其观点和对其真实性负责。

如有侵权、违反国家法律政策行为,请联系我们,我们会第一时间及时清除和处理!

举报反馈邮箱:[email protected]

快速回复 返回顶部 返回列表