找回密码

蓝光电影网

查看: 323|回复: 2

[剧情] 迪林格尔之死 Dillinger.Is.Dead.1969.1080p.BluRay.x264-USURY 9.74GB

[复制链接]
蓝光币
623
发表于 2021-10-23 17:56:51 | 显示全部楼层 |阅读模式


◎译  名 迪林格尔之死/Dillinger Is Dead/迪林杰已死
◎片  名 Dillinger è morto
◎年  代 1969
◎产  地 意大利
◎类  别 剧情 / 犯罪
◎语  言 意大利语
◎上映日期 1969-01-23
◎豆瓣评分 7.4/10 from 409 users
◎豆瓣链接 https://movie.douban.com/subject/1308666/
◎片  长 95分钟
◎导  演 马可·费雷里 Marco Ferreri
◎编  剧 马可·费雷里 Marco Ferreri
◎主  演 米歇尔·皮科利 Michel Piccoli
       安妮塔·帕里博格 Anita Pallenberg
       Gino Lavagetto Gino Lavagetto
       安妮·吉拉尔多 Annie Girardot
       阿德里亚诺·阿普拉 Adriano Aprà
       凯荷·安德烈 Carole André
◎标  签 意大利 | CC | 马尔科·费雷里 | 1960s | Marco_Ferreri | 意大利电影 | 1969 | 犯罪
◎简  介


  《迪林格尔之死》可以算作是费雷里最成功的影片之一。故事论述一个汉子回抵家,看到患偏头痛的妻子躺在床上睡着了。在影片和事务现实发生的时候相符合的情况下,观众似乎看到了这小我天天的行动行为。他做饭,去花园,看电视,放映自己专业拍摄的影片,然后从一张报道迪林格尔死了的旧报纸裹着的包里取出一把手枪,仔仔细细地给枪上了油,并把它修睦。在和女仆调情后,他走进寝室,用枪把妻子打死。第二天早晨他在一条开往塔希提岛的游艇上找到了一个职位。除了开首和多数是空想出来的结尾外,影片对平常生活细致入微的观察非常吸引人。这些观察使影片发生了一种与传统的电影剧作理论无关的严重氛围,而且经过对细节的写实主义的描画逐步揭露了人与内部天下的关系。
◎获奖情况
  第22届戛纳电影节 ?(1969)
  主比赛单元金棕榈奖(提名) 马可·费雷里
  1. Video
  2. ID                                       : 1
  3. Format                                   : AVC
  4. Format/Info                              : Advanced Video Codec
  5. Format profile                           : [email protected]
  6. Format settings                          : CABAC / 5 Ref Frames
  7. Format settings, CABAC                   : Yes
  8. Format settings, Reference frames        : 5 frames
  9. Codec ID                                 : V_MPEG4/ISO/AVC
  10. Duration                                 : 1 h 35 min
  11. Bit rate                                 : 14.5 Mb/s
  12. Width                                    : 1 440 pixels
  13. Height                                   : 1 080 pixels
  14. Display aspect ratio                     : 4:3
  15. Frame rate mode                          : Constant
  16. Frame rate                               : 24.000 FPS
  17. Color space                              : YUV
  18. Chroma subsampling                       : 4:2:0
  19. Bit depth                                : 8 bits
  20. Scan type                                : Progressive
  21. Bits/(Pixel*Frame)                       : 0.387
  22. Stream size                              : 9.61 GiB (99%)
  23. Writing library                          : x264 core 164 r3075 66a5bc1
  24. Encoding settings                        : cabac=1 / ref=5 / deblock=1:-3:-3 / analyse=0x3:0x133 / me=umh / subme=10 / psy=1 / psy_rd=1.00:0.15 / mixed_ref=1 / me_range=24 / chroma_me=1 / trellis=2 / 8x8dct=1 / cqm=0 / deadzone=21,11 / fast_pskip=1 / chroma_qp_offset=-3 / threads=18 / lookahead_threads=3 / sliced_threads=0 / nr=0 / decimate=1 / interlaced=0 / bluray_compat=0 / constrained_intra=0 / bframes=8 / b_pyramid=2 / b_adapt=2 / b_bias=0 / direct=3 / weightb=1 / open_gop=0 / weightp=2 / keyint=250 / keyint_min=24 / scenecut=40 / intra_refresh=0 / rc_lookahead=60 / rc=crf / mbtree=1 / crf=21.0 / qcomp=0.60 / qpmin=0 / qpmax=69 / qpstep=4 / ip_ratio=1.40 / aq=3:0.50
  25. Language                                 : English
  26. Default                                  : Yes
  27. Forced                                   : No
  28. Color range                              : Limited
  29. Matrix coefficients                      : BT.709

  30. Audio
  31. ID                                       : 2
  32. Format                                   : FLAC
  33. Format/Info                              : Free Lossless Audio Codec
  34. Codec ID                                 : A_FLAC
  35. Duration                                 : 1 h 35 min
  36. Bit rate mode                            : Variable
  37. Bit rate                                 : 198 kb/s
  38. Channel(s)                               : 2 channels
  39. Channel layout                           : L R
  40. Sampling rate                            : 48.0 kHz
  41. Frame rate                               : 11.719 FPS (4096 SPF)
  42. Bit depth                                : 16 bits
  43. Compression mode                         : Lossless
  44. Stream size                              : 134 MiB (1%)
  45. Writing library                          : libFLAC 1.2.1 (UTC 2007-09-17)
  46. Language                                 : Italian
  47. Default                                  : Yes
  48. Forced                                   : No

  49. Text #1
  50. ID                                       : 3
  51. Format                                   : UTF-8
  52. Codec ID                                 : S_TEXT/UTF8
  53. Codec ID/Info                            : UTF-8 Plain Text
  54. Duration                                 : 1 h 32 min
  55. Bit rate                                 : 10 b/s
  56. Count of elements                        : 225
  57. Stream size                              : 7.39 KiB (0%)
  58. Title                                    : English
  59. Language                                 : English
  60. Default                                  : Yes
  61. Forced                                   : Yes

  62. Text #2
  63. ID                                       : 4
  64. Format                                   : PGS
  65. Muxing mode                              : zlib
  66. Codec ID                                 : S_HDMV/PGS
  67. Codec ID/Info                            : Picture based subtitle format used on BDs/HD-DVDs
  68. Duration                                 : 16 s 666 ms
  69. Bit rate                                 : 3 975 b/s
  70. Count of elements                        : 4
  71. Stream size                              : 8.09 KiB (0%)
  72. Title                                    : Italian forced
  73. Language                                 : Italian
  74. Default                                  : No
  75. Forced                                   : No

  76. Text #3
  77. ID                                       : 5
  78. Format                                   : PGS
  79. Muxing mode                              : zlib
  80. Codec ID                                 : S_HDMV/PGS
  81. Codec ID/Info                            : Picture based subtitle format used on BDs/HD-DVDs
  82. Duration                                 : 1 h 32 min
  83. Bit rate                                 : 1 394 b/s
  84. Count of elements                        : 510
  85. Stream size                              : 949 KiB (0%)
  86. Title                                    : Italian
  87. Language                                 : Italian
  88. Default                                  : No
  89. Forced                                   : No

  90. Text #4
  91. ID                                       : 6
  92. Format                                   : PGS
  93. Muxing mode                              : zlib
  94. Codec ID                                 : S_HDMV/PGS
  95. Codec ID/Info                            : Picture based subtitle format used on BDs/HD-DVDs
  96. Duration                                 : 1 h 34 min
  97. Bit rate                                 : 2 043 b/s
  98. Count of elements                        : 736
  99. Stream size                              : 1.38 MiB (0%)
  100. Title                                    : Italian SDH
  101. Language                                 : Italian
  102. Default                                  : No
  103. Forced                                   : No

  104. Menu
  105. 00:00:00.000                             : en:00:00:00.000
  106. 00:06:38.958                             : en:00:06:38.958
  107. 00:14:01.500                             : en:00:14:01.500
  108. 00:28:32.042                             : en:00:28:32.042
  109. 00:35:57.000                             : en:00:35:57.000
  110. 00:48:04.250                             : en:00:48:04.250
  111. 00:59:24.667                             : en:00:59:24.667
  112. 01:13:29.833                             : en:01:13:29.833
  113. 01:24:55.583                             : en:01:24:55.583
复制代码





                                       
                                       

                                       
                                       
                                       




回复

使用道具 举报

蓝光币
219
发表于 2021-10-23 20:28:18 | 显示全部楼层
楼主发贴辛苦了,谢谢楼主分享!我觉得蓝光电影网是注册对了!
回复 支持 反对

使用道具 举报

蓝光币
59
发表于 2021-10-24 00:49:42 | 显示全部楼层

感谢楼主的无私分享!要想蓝光电影网好 就靠你我他
回复 支持 反对

使用道具 举报

懒得打字嘛,点击右侧快捷回复 【右侧内容,后台自定义】
您需要登录后才可以回帖 登录 | 立即加入

本版积分规则

Archiver|小黑屋| 蓝光电影网 |网站地图

Copyright © 2021 Comsenz Inc. Powered by 蓝光电影网

蓝光电影网

本站内容由用户自主分享和转载自互联网,转载目的在于传递更多信息,并不代表本网赞同其观点和对其真实性负责。

如有侵权、违反国家法律政策行为,请联系我们,我们会第一时间及时清除和处理!

举报反馈邮箱:[email protected]

快速回复 返回顶部 返回列表