找回密码

蓝光电影网

查看: 9962|回复: 133

[2160p-WEB] 沙丘/沙丘瀚战 Dune.2021.2160p.WEBRip.x265.10bit.SDR.DDP5.1.Atmos-SWTYBLZ 27.07GB

  [复制链接]
蓝光币
623
发表于 2021-10-23 18:17:18 | 显示全部楼层 |阅读模式


◎译  名 沙丘/沙丘瀚战(港)
◎片  名 Dune
◎年  代 2021
◎产  地 美国
◎类  别 剧情 / 科幻 / 冒险
◎语  言 英语
◎上映日期 2021-09-03(威尼斯电影节) / 2021-09-11(多伦多电影节) / 2021-10-22(美国/中国大陆)
◎豆瓣评分 7.8/10 from 79465 users
◎豆瓣链接 https://movie.douban.com/subject/3001114/
◎片  长 156分钟
◎导  演 丹尼斯·维伦纽瓦 Denis Villeneuve
◎编  剧 丹尼斯·维伦纽瓦 Denis Villeneuve / 乔·斯派茨 Jon Spaihts / 艾瑞克·罗斯 Eric Roth / 弗兰克·赫伯特 Frank Herbert
◎主  演 蒂莫西·柴勒梅德 Timothée Chalamet
       丽贝卡·弗格森 Rebecca Ferguson
       奥斯卡·伊萨克 Oscar Isaac
       戴夫·巴蒂斯塔 Dave Bautista
       赞达亚 Zendaya
       杰森·莫玛 Jason Momoa
       乔什·布洛林 Josh Brolin
       哈维尔·巴登 Javier Bardem
       斯特兰·斯卡斯加德 Stellan Skarsg?rd
       夏洛特·兰普林 Charlotte Rampling
       大卫·达斯马齐连 David Dastmalchian
       莎伦·邓肯-布鲁斯特 Sharon Duncan-Brewster
       斯蒂芬·亨德森 Stephen Henderson
       迈克尔·纳尔多内 Michael Nardone
       张震 Chen Chang
       巴布斯·奥卢桑莫昆 Babs Olusanmokun
       Oliver Ryan Oliver Ryan
       查理·罗尔斯 Charlie Rawes
       格洛里亚·奥比安约 Gloria Obianyo
       保罗·布林 Paul Bullion
       比约恩·弗赖贝格 Bj?rn Freiberg
◎标  签 科幻 | 沙丘 | 美国 | 2021 | 奇异 | 冒险 | 剧情 | 典范
◎简  介


  电影《沙丘》为观众显现了一段奥秘而动人至深的豪杰之旅。天赋异禀的少年保罗·厄崔迪被命运指引,为了保卫自己的家属和群众,决心前往浩大宇宙间最危险的星球,开启一场惊心动魄的冒险。与此同时,各路势力为了掠取这颗星球上一种可以开释人类最大潜力的珍贵资本而纷纷加入疆场。终极,惟有那些可以克服心里恐惧的人材能保存下去。
◎获奖情况
  第7届豆瓣电影年度榜单 ?(2020)
  最值得期待的外语电影(提名)
  
  第6届豆瓣电影年度榜单 ?(2019)
  最值得期待的外语电影(提名)
  1. Video
  2. ID                                       : 1
  3. Format                                   : HEVC
  4. Format/Info                              : High Efficiency Video Coding
  5. Format profile                           : Main [email protected]@High
  6. Codec ID                                 : V_MPEGH/ISO/HEVC
  7. Duration                                 : 2 h 35 min
  8. Bit rate                                 : 24.1 Mb/s
  9. Width                                    : 3 840 pixels
  10. Height                                   : 1 606 pixels
  11. Display aspect ratio                     : 2.40:1
  12. Frame rate mode                          : Constant
  13. Frame rate                               : 23.976 (24000/1001/189150) FPS
  14. Color space                              : YUV
  15. Chroma subsampling                       : 4:2:0
  16. Bit depth                                : 10 bits
  17. Bits/(Pixel*Frame)                       : 0.163
  18. Stream size                              : 26.2 GiB (97%)
  19. Writing library                          : x265 3.0ed72af837053:[Windows][GCC 8.2.0][64 bit] 10bit
  20. Encoding settings                        : cpuid=1111039 / frame-threads=6 / numa-pools=40 / wpp / no-pmode / no-pme / no-psnr / no-ssim / log-level=2 / input-csp=1 / input-res=3840x1606 / interlace=0 / total-frames=223576 / level-idc=51 / high-tier=1 / uhd-bd=0 / ref=3 / no-allow-non-conformance / repeat-headers / annexb / aud / hrd / info / hash=0 / no-temporal-layers / no-open-gop / min-keyint=1 / keyint=24 / gop-lookahead=0 / bframes=4 / b-adapt=2 / b-pyramid / bframe-bias=0 / rc-lookahead=25 / lookahead-slices=4 / scenecut=40 / radl=0 / no-splice / no-intra-refresh / ctu=64 / min-cu-size=8 / no-rect / no-amp / max-tu-size=32 / tu-inter-depth=1 / tu-intra-depth=1 / limit-tu=0 / rdoq-level=0 / dynamic-rd=0.00 / no-ssim-rd / signhide / no-tskip / nr-intra=0 / nr-inter=0 / no-constrained-intra / strong-intra-smoothing / max-merge=2 / limit-refs=3 / no-limit-modes / me=1 / subme=2 / merange=57 / temporal-mvp / weightp / no-weightb / no-analyze-src-pics / deblock=0:0 / no-sao / no-sao-non-deblock / rd=3 / no-early-skip / rskip / no-fast-intra / no-tskip-fast / no-cu-lossless / no-b-intra / no-splitrd-skip / rdpenalty=0 / psy-rd=2.00 / psy-rdoq=0.00 / no-rd-refine / no-lossless / cbqpoffs=0 / crqpoffs=0 / rc=crf / crf=16.0 / qcomp=0.60 / qpstep=4 / stats-write=0 / stats-read=0 / vbv-maxrate=160000 / vbv-bufsize=160000 / vbv-init=0.9 / crf-max=0.0 / crf-min=0.0 / ipratio=1.40 / pbratio=1.30 / aq-mode=1 / aq-strength=1.00 / cutree / zone-count=0 / no-strict-cbr / qg-size=32 / no-rc-grain / qpmax=69 / qpmin=0 / no-const-vbv / sar=1 / overscan=0 / videoformat=5 / range=0 / colorprim=2 / transfer=2 / colormatrix=2 / chromaloc=0 / display-window=0 / max-cll=0,0 / min-luma=0 / max-luma=1023 / log2-max-poc-lsb=8 / vui-timing-info / vui-hrd-info / slices=1 / opt-qp-pps / opt-ref-list-length-pps / no-multi-pass-opt-rps / scenecut-bias=0.05 / no-opt-cu-delta-qp / no-aq-motion / no-hdr / no-hdr-opt / no-dhdr10-opt / no-idr-recovery-sei / analysis-reuse-level=5 / scale-factor=0 / refine-intra=0 / refine-inter=0 / refine-mv=0 / refine-ctu-distortion=0 / no-limit-sao / ctu-info=0 / no-lowpass-dct / refine-analysis-type=0 / copy-pic=1 / max-ausize-factor=1.0 / no-dynamic-refine / no-single-sei / no-hevc-aq / qp-adaptation-range=1.00
  21. Default                                  : Yes
  22. Forced                                   : No

  23. Audio
  24. ID                                       : 2
  25. Format                                   : E-AC-3 JOC
  26. Format/Info                              : Enhanced AC-3 with Joint Object Coding
  27. Commercial name                          : Dolby Digital Plus with Dolby Atmos
  28. Codec ID                                 : A_EAC3
  29. Duration                                 : 2 h 35 min
  30. Bit rate mode                            : Constant
  31. Bit rate                                 : 768 kb/s
  32. Channel(s)                               : 6 channels
  33. Channel layout                           : L R C LFE Ls Rs
  34. Sampling rate                            : 48.0 kHz
  35. Frame rate                               : 31.250 FPS (1536 SPF)
  36. Compression mode                         : Lossy
  37. Stream size                              : 854 MiB (3%)
  38. Title                                    : DDP5.1 Atmos
  39. Language                                 : English
  40. Service kind                             : Complete Main
  41. Default                                  : Yes
  42. Forced                                   : No
  43. Complexity index                         : 16
  44. Number of dynamic objects                : 15
  45. Bed channel count                        : 1 channel
  46. Bed channel configuration                : LFE

  47. Text #1
  48. ID                                       : 3
  49. Format                                   : UTF-8
  50. Codec ID                                 : S_TEXT/UTF8
  51. Codec ID/Info                            : UTF-8 Plain Text
  52. Duration                                 : 2 h 25 min
  53. Bit rate                                 : 31 b/s
  54. Count of elements                        : 1353
  55. Stream size                              : 34.1 KiB (0%)
  56. Title                                    : English
  57. Language                                 : English
  58. Default                                  : Yes
  59. Forced                                   : No

  60. Text #2
  61. ID                                       : 4
  62. Format                                   : UTF-8
  63. Codec ID                                 : S_TEXT/UTF8
  64. Codec ID/Info                            : UTF-8 Plain Text
  65. Duration                                 : 2 h 26 min
  66. Bit rate                                 : 41 b/s
  67. Count of elements                        : 1724
  68. Stream size                              : 44.4 KiB (0%)
  69. Title                                    : English [SDH]
  70. Language                                 : English
  71. Default                                  : No
  72. Forced                                   : No

  73. Text #3
  74. ID                                       : 5
  75. Format                                   : UTF-8
  76. Codec ID                                 : S_TEXT/UTF8
  77. Codec ID/Info                            : UTF-8 Plain Text
  78. Duration                                 : 2 h 16 min
  79. Bit rate                                 : 1 b/s
  80. Count of elements                        : 50
  81. Stream size                              : 1.42 KiB (0%)
  82. Title                                    : Spanish
  83. Language                                 : Spanish
  84. Default                                  : No
  85. Forced                                   : No

  86. Text #4
  87. ID                                       : 6
  88. Format                                   : UTF-8
  89. Codec ID                                 : S_TEXT/UTF8
  90. Codec ID/Info                            : UTF-8 Plain Text
  91. Duration                                 : 2 h 16 min
  92. Bit rate                                 : 1 b/s
  93. Count of elements                        : 50
  94. Stream size                              : 1.42 KiB (0%)
  95. Title                                    : Spanish [SDH]
  96. Language                                 : Spanish
  97. Default                                  : No
  98. Forced                                   : No
复制代码




                                       
                                       

                                       
                                       
                                       





1080P版本:

回复

使用道具 举报

蓝光币
242
发表于 2021-10-23 23:34:11 | 显示全部楼层
下载的种子打不开
回复 支持 1 反对 0

使用道具 举报

蓝光币
1526
发表于 2021-10-23 19:14:27 | 显示全部楼层
太好啦&萬分感謝版主的無私發佈分享%
回复 支持 0 反对 1

使用道具 举报

蓝光币
4
发表于 2021-10-23 18:56:19 | 显示全部楼层
昨天上影,今天下载看,赞
回复 支持 1 反对 0

使用道具 举报

蓝光币
15
发表于 2021-10-23 20:15:22 | 显示全部楼层
楼主发贴辛苦了,谢谢楼主分享!我觉得蓝光电影网是注册对了!
回复 支持 反对

使用道具 举报

蓝光币
15
发表于 2021-10-23 20:16:27 | 显示全部楼层
楼主发贴辛苦了,谢谢楼主分享!我觉得蓝光电影网是注册对了!
回复 支持 反对

使用道具 举报

蓝光币
123
发表于 2021-10-23 20:30:30 | 显示全部楼层

既然你诚信诚意的推荐了,那我就勉为其难的看看吧!蓝光电影网不走平凡路。
回复 支持 反对

使用道具 举报

蓝光币
7
发表于 2021-10-23 21:49:14 | 显示全部楼层
楼主发贴辛苦了,谢谢楼主分享!我觉得蓝光电影网是注册对了!
回复 支持 反对

使用道具 举报

蓝光币
55
发表于 2021-10-23 22:51:11 | 显示全部楼层
楼主发贴辛苦了,谢谢楼主分享!我觉得蓝光电影网是注册对了!
回复 支持 反对

使用道具 举报

蓝光币
11
发表于 2021-10-24 07:52:16 | 显示全部楼层
不错,收下了。
回复 支持 反对

使用道具 举报

懒得打字嘛,点击右侧快捷回复 【右侧内容,后台自定义】
您需要登录后才可以回帖 登录 | 立即加入

本版积分规则

Archiver|小黑屋| 蓝光电影网 |网站地图

Copyright © 2021 Comsenz Inc. Powered by 蓝光电影网

蓝光电影网

本站内容由用户自主分享和转载自互联网,转载目的在于传递更多信息,并不代表本网赞同其观点和对其真实性负责。

如有侵权、违反国家法律政策行为,请联系我们,我们会第一时间及时清除和处理!

举报反馈邮箱:[email protected]

快速回复 返回顶部 返回列表