找回密码

蓝光电影网

查看: 119|回复: 0

[其他] 晚安律政司 Goodnight.for.Justice.2011.1080p.AMZN.WEBRip.DDP2.0.x264-TEPES 5.78GB

[复制链接]
蓝光币
733
发表于 2021-10-23 21:01:36 | 显示全部楼层 |阅读模式


◎译  名 晚安律政司
◎片  名 Goodnight for Justice (TV 2011)
◎年  代 2011
◎产  地 美国
◎类  别 西部
◎语  言 英语
◎上映日期 2011-01-29(美国)
◎豆瓣评分 /10 from 0 users
◎豆瓣链接 https://movie.douban.com/subject/5966179/
◎片  长 88分钟
◎标  签 西部 | ?
◎简  介


  ◎译  名 晚安律政司/古德奈特的审判
  
  ◎片  名 Goodnight For Justice
  
  ◎年  代 2011
  
  ◎国  家 美国
  
  ◎类  别 西部
  
  ◎语  言 英语
  
  ◎字  幕 N/A
  
  ◎IMDB评分 4.6/10 (49 votes)
  
  ◎IMDB链接 http://www.imdb.com/title/tt1716743
  
  ◎文件格式 XviD + MP3
  
  ◎视频尺寸 640 x 352
  
  ◎文件巨细 1CD 50 x 15MB
  
  ◎片  长 90 Mins
  
  ◎导  演 Jason Priestley
  
  ◎主  演 Luke Perry ... John Goodnight
  
  Lara Gilchrist ... Kate Ramsey
  
  Hayden Davies ... Boy
  
  Brett Dier ... Young Clerk
  
  Sam Duke ... Young John Goodnight
  
  Darla Fay ... Betty
  
  Luis Javier ... Citizen
  
  Sean Wei Mah ... Whitecloud
  
  Maya Massar ... White woman
  
  Darren Moore
  
  Hal Myshrall ... Cronie
  
  Adom Osei ... Isaack
  
  Melanie Papalia ... Ms. Landry
  
  Winston Rekert ... Frank LeGrange
  
  John Shaw ... Mr. Jones
  
  
  
  ◎简  介

  
  When john goodnight was a boy he watched in the weeds as his entire family was killed in a ruthless outlaw attack. Now as a circuit judge of the western territories goodnight travels the west protecting the innocent from injustice.
  
  John Goodnight (Luke Perry) was just a child when he witnessed the brutal murders of his parents by a band of ruthless outlaws. Now as a Circuit Judge of the Western Territories, he travels the lawless frontier, haunted by the memory of the man who destroyed his family. When one fateful day, his journey brings him to a place all too familiar, Goodnight must decide between good and evil . . . justice and revenge.
  1. Video
  2. ID                                       : 1
  3. Format                                   : AVC
  4. Format/Info                              : Advanced Video Codec
  5. Format profile                           : [email protected]
  6. Format settings                          : CABAC / 4 Ref Frames
  7. Format settings, CABAC                   : Yes
  8. Format settings, Reference frames        : 4 frames
  9. Codec ID                                 : V_MPEG4/ISO/AVC
  10. Duration                                 : 1 h 27 min
  11. Bit rate mode                            : Constant
  12. Bit rate                                 : 9 216 kb/s
  13. Nominal bit rate                         : 10 000 kb/s
  14. Width                                    : 1 920 pixels
  15. Height                                   : 1 080 pixels
  16. Display aspect ratio                     : 16:9
  17. Frame rate mode                          : Constant
  18. Frame rate                               : 23.976 (24000/1001/189150) FPS
  19. Color space                              : YUV
  20. Chroma subsampling                       : 4:2:0
  21. Bit depth                                : 8 bits
  22. Scan type                                : Progressive
  23. Bits/(Pixel*Frame)                       : 0.185
  24. Stream size                              : 5.64 GiB (98%)
  25. Default                                  : Yes
  26. Forced                                   : No
  27. Color range                              : Limited
  28. Color primaries                          : BT.709
  29. Transfer characteristics                 : BT.709
  30. Matrix coefficients                      : BT.709
  31. Audio
  32. ID                                       : 2
  33. Format                                   : E-AC-3
  34. Format/Info                              : Enhanced AC-3
  35. Commercial name                          : Dolby Digital Plus
  36. Codec ID                                 : A_EAC3
  37. Duration                                 : 1 h 27 min
  38. Bit rate mode                            : Constant
  39. Bit rate                                 : 224 kb/s
  40. Channel(s)                               : 2 channels
  41. Channel layout                           : L R
  42. Sampling rate                            : 48.0 kHz
  43. Frame rate                               : 31.250 FPS (1536 SPF)
  44. Compression mode                         : Lossy
  45. Stream size                              : 140 MiB (2%)
  46. Language                                 : English
  47. Service kind                             : Complete Main
  48. Default                                  : Yes
  49. Forced                                   : No
  50. Text #1
  51. ID                                       : 3
  52. Format                                   : UTF-8
  53. Codec ID                                 : S_TEXT/UTF8
  54. Codec ID/Info                            : UTF-8 Plain Text
  55. Duration                                 : 1 h 26 min
  56. Bit rate                                 : 56 b/s
  57. Count of elements                        : 1282
  58. Stream size                              : 35.6 KiB (0%)
  59. Language                                 : English
  60. Default                                  : No
  61. Forced                                   : No
  62. Text #2
  63. ID                                       : 4
  64. Format                                   : UTF-8
  65. Codec ID                                 : S_TEXT/UTF8
  66. Codec ID/Info                            : UTF-8 Plain Text
  67. Duration                                 : 1 h 26 min
  68. Bit rate                                 : 57 b/s
  69. Count of elements                        : 1329
  70. Stream size                              : 36.1 KiB (0%)
  71. Title                                    : SDH
  72. Language                                 : English
  73. Default                                  : No
  74. Forced                                   : No
复制代码







                                       
                                       

                                       
                                       
                                       




回复

使用道具 举报

懒得打字嘛,点击右侧快捷回复 【右侧内容,后台自定义】
您需要登录后才可以回帖 登录 | 立即加入

本版积分规则

Archiver|小黑屋| 蓝光电影网 |网站地图

Copyright © 2021 Comsenz Inc. Powered by 蓝光电影网

蓝光电影网

本站内容由用户自主分享和转载自互联网,转载目的在于传递更多信息,并不代表本网赞同其观点和对其真实性负责。

如有侵权、违反国家法律政策行为,请联系我们,我们会第一时间及时清除和处理!

举报反馈邮箱:[email protected]

快速回复 返回顶部 返回列表