找回密码

蓝光电影网

查看: 517|回复: 3

[剧情] 罪孽天使/天堂造物 Heavenly.Creatures.1994.iNTERNAL.1080p.BluRay.x264-GUACAMOLE 15.84GB

[复制链接]
蓝光币
730
发表于 2021-10-24 09:48:17 | 显示全部楼层 |阅读模式


◎译  名 罪孽天使/天堂造物/梦幻天堂(台)
◎片  名 Heavenly Creatures
◎年  代 1994
◎产  地 新西兰,德国
◎类  别 剧情 / 惊悚 / 同性 / 犯罪 / 奇异
◎语  言 英语
◎上映日期 1994-10-14
◎豆瓣评分 7.2/10 from 4754 users
◎豆瓣链接 https://movie.douban.com/subject/1301716/
◎片  长 99 分钟
◎导  演 彼得·杰克逊 Peter Jackson
◎编  剧 弗兰·威尔士 Fran Walsh / 彼得·杰克逊 Peter Jackson
◎主  演 梅兰妮·林斯基 Melanie Lynskey
       凯特·温丝莱特 Kate Winslet
       彼得·杰克逊 Peter Jackson
       莎拉·皮尔斯 Sarah Peirse
       格伦·德雷克 Glen Drake
       Jean Guérin Jean Guérin
       克里夫·梅利森 Clive Merrison
       Kylie Cushman Kylie Cushman
◎标  签 新西兰 | 犯罪 | KateWinslet | 青春 | PeterJackson | les | 彼得·杰克逊 | 1994
◎简  介


  朱丽叶(凯特·温丝莱特 Kate Winslet 饰)和波林(梅兰妮·林斯基 Melanie Lynskey 饰)了解于一所校风松散的女子黉舍中,一见仍旧的两人之间很快就建立起了真挚而热烈的友谊。在两人共有的日志本上,记录着名为《波洛夫尼亚》的虚拟故事,故事的配角是查尔斯国王和黛博拉王后。
  
  朱丽叶的肺结核病让她和波林被迫分手,在此时代,她们以查尔斯和黛博拉的身份相互通讯。随着时候的推移,朱丽叶的怙恃发觉了女儿和波林之间超乎平常的豪情,他们起头动手拆散这对胶漆相投的好友。怙恃的行为让朱丽叶和波林非常疾苦,处于敏感年数的两人在感动之下终究犯下了没法挽回的罪孽。
◎获奖情况
  第67届奥斯卡金像奖 ?(1995)
  最好原创剧本(提名) 弗兰·威尔士?/?彼得·杰克逊
  
  第51届威尼斯电影节 ?(1994)
  金狮奖(提名) 彼得·杰克逊
  银狮奖 彼得·杰克逊
  1. Video
  2. ID                                       : 1
  3. Format                                   : AVC
  4. Format/Info                              : Advanced Video Codec
  5. Format profile                           : [email protected]
  6. Format settings                          : CABAC / 4 Ref Frames
  7. Format settings, CABAC                   : Yes
  8. Format settings, Reference frames        : 4 frames
  9. Codec ID                                 : V_MPEG4/ISO/AVC
  10. Duration                                 : 1 h 38 min
  11. Bit rate                                 : 20.6 Mb/s
  12. Width                                    : 1 916 pixels
  13. Height                                   : 816 pixels
  14. Display aspect ratio                     : 2.35:1
  15. Frame rate mode                          : Constant
  16. Frame rate                               : 24.000 FPS
  17. Color space                              : YUV
  18. Chroma subsampling                       : 4:2:0
  19. Bit depth                                : 8 bits
  20. Scan type                                : Progressive
  21. Bits/(Pixel*Frame)                       : 0.550
  22. Stream size                              : 14.3 GiB (90%)
  23. Writing library                          : x264 core 164 r3075 66a5bc1
  24. Encoding settings                        : cabac=1 / ref=4 / deblock=1:-3:-3 / analyse=0x3:0x133 / me=umh / subme=9 / psy=1 / psy_rd=1.00:0.00 / mixed_ref=1 / me_range=16 / chroma_me=1 / trellis=2 / 8x8dct=1 / cqm=0 / deadzone=21,11 / fast_pskip=0 / chroma_qp_offset=-2 / threads=25 / lookahead_threads=2 / sliced_threads=0 / nr=0 / decimate=1 / interlaced=0 / bluray_compat=0 / constrained_intra=0 / bframes=3 / b_pyramid=2 / b_adapt=2 / b_bias=0 / direct=3 / weightb=1 / open_gop=0 / weightp=2 / keyint=250 / keyint_min=24 / scenecut=40 / intra_refresh=0 / rc_lookahead=60 / rc=crf / mbtree=1 / crf=19.0 / qcomp=0.60 / qpmin=0 / qpmax=69 / qpstep=4 / ip_ratio=1.40 / aq=3:0.60
  25. Default                                  : Yes
  26. Forced                                   : No
  27. Color range                              : Limited
  28. Matrix coefficients                      : BT.709

  29. Audio
  30. ID                                       : 2
  31. Format                                   : DTS XLL
  32. Format/Info                              : Digital Theater Systems
  33. Commercial name                          : DTS-HD Master Audio
  34. Codec ID                                 : A_DTS
  35. Duration                                 : 1 h 38 min
  36. Bit rate mode                            : Variable
  37. Bit rate                                 : 2 275 kb/s
  38. Channel(s)                               : 6 channels
  39. Channel layout                           : C L R Ls Rs LFE
  40. Sampling rate                            : 48.0 kHz
  41. Frame rate                               : 93.750 FPS (512 SPF)
  42. Bit depth                                : 24 bits
  43. Compression mode                         : Lossless
  44. Stream size                              : 1.57 GiB (10%)
  45. Language                                 : English
  46. Default                                  : Yes
  47. Forced                                   : No

  48. Text
  49. ID                                       : 3
  50. Format                                   : PGS
  51. Muxing mode                              : zlib
  52. Codec ID                                 : S_HDMV/PGS
  53. Codec ID/Info                            : Picture based subtitle format used on BDs/HD-DVDs
  54. Duration                                 : 1 h 36 min
  55. Bit rate                                 : 10.1 kb/s
  56. Count of elements                        : 1714
  57. Stream size                              : 6.99 MiB (0%)
  58. Language                                 : German
  59. Default                                  : No
  60. Forced                                   : No

  61. Menu
  62. 00:00:00.000                             : en:00:00:00.000
  63. 00:09:25.958                             : en:00:09:25.958
  64. 00:19:53.792                             : en:00:19:53.792
  65. 00:31:30.250                             : en:00:31:30.250
  66. 00:42:15.250                             : en:00:42:15.250
  67. 00:53:27.917                             : en:00:53:27.917
  68. 01:02:51.000                             : en:01:02:51.000
  69. 01:14:10.083                             : en:01:14:10.083
  70. 01:23:48.375                             : en:01:23:48.375
复制代码





                                       
                                       

                                       
                                       
                                       




回复

使用道具 举报

蓝光币
298
发表于 2021-10-24 21:10:20 | 显示全部楼层
楼主发贴辛苦了,谢谢楼主分享!我觉得蓝光电影网是注册对了!
回复 支持 反对

使用道具 举报

蓝光币
1
发表于 2021-10-24 22:16:59 | 显示全部楼层


非常感谢楼主分享,谢谢
回复 支持 反对

使用道具 举报

蓝光币
87
发表于 2021-10-25 09:23:28 | 显示全部楼层
楼主发贴辛苦了,谢谢楼主分享!我觉得蓝光电影网是注册对了!
回复 支持 反对

使用道具 举报

懒得打字嘛,点击右侧快捷回复 【右侧内容,后台自定义】
您需要登录后才可以回帖 登录 | 立即加入

本版积分规则

Archiver|小黑屋| 蓝光电影网 |网站地图

Copyright © 2021 Comsenz Inc. Powered by 蓝光电影网

蓝光电影网

本站内容由用户自主分享和转载自互联网,转载目的在于传递更多信息,并不代表本网赞同其观点和对其真实性负责。

如有侵权、违反国家法律政策行为,请联系我们,我们会第一时间及时清除和处理!

举报反馈邮箱:[email protected]

快速回复 返回顶部 返回列表