找回密码

蓝光电影网

查看: 117|回复: 0

[剧情] 命运之石 Stone.of.Destiny.2008.1080p.NOW.WEBRip.AAC2.0.x264-QOQ 5.11GB

[复制链接]
蓝光币
733
发表于 2021-10-24 10:48:10 | 显示全部楼层 |阅读模式


◎译  名 命运之石
◎片  名 Stone of Destiny
◎年  代 2008
◎产  地 加拿大,英国
◎类  别 剧情 / 笑剧 / 犯罪 / 冒险
◎语  言 英语
◎上映日期 2008-06-21
◎豆瓣评分 7.5/10 from 582 users
◎豆瓣链接 https://movie.douban.com/subject/3075266/
◎片  长 96分钟
◎导  演 查尔斯·马丁·史姑娘 Charles Martin Smith
◎编  剧 查尔斯·马丁·史姑娘 Charles Martin Smith
◎主  演 查理·考克斯 Charlie Cox
       凯特·玛拉 Kate Mara
       比利·博伊德 Billy Boyd
       夏兰·凯利 Ciaron Kelly
       罗伯特·卡莱尔 Robert Carlyle
       Juliet Cadzow Juliet Cadzow
        Adam Smith
        Ashley McFarlane
       Bernard Horsfall Bernard Horsfall
       罗恩·多纳基 Ron Donachie
       拉布·阿弗莱克 Rab Affleck
       彼得·穆兰 Peter Mullan
       布兰达·弗里克 Brenda Fricker
◎标  签 苏格兰 | 英国 | 英国电影 | 历史 | 2008 | 自力电影 | 自力 | 剧情
◎简  介


  二战以后的苏格兰,人们正在为谋求苏格兰从英联邦中自力出来而呼吁和奔走。大门生伊恩·汉米尔顿决议做一件震天动地的大事来叫醒公众的自力认识。伊恩计划将意味着苏格兰国王代代相传的“命运之石”从伦敦的威斯敏斯特教堂英王即位宝座下面偷盗出来。伊恩为了这个计划起头了预备工作。最初一女三男的行动小组开了两部小车就踏上了开往伦敦的旅程。他们的计划和装备是如此之简单,让人不能不思疑计划能否可以成功。意外一个接一个发生了。唯一的女性小组成员高烧不退;姑且行动还未起头就已短命;警戒的房东报警也让大门生们虚惊一场……
  
  即使在这类计划不周密行动欠斟酌的情况下,四人还是奇迹般将“命运之石”盗出,并成功地运回了苏格兰。“命运之石”被盗事务敏捷激发掀然大波,苏格兰公众纷纷涌上陌头庆贺,而警方却焦头烂额地起头寻觅其着落。纸毕竟包不住火,伊恩很快被锁定为怀疑人。一个更加大胆的行动正在酝酿……
  1. Video
  2. ID                                       : 1
  3. Format                                   : AVC
  4. Format/Info                              : Advanced Video Codec
  5. Format profile                           : [email protected]
  6. Format settings                          : CABAC / 2 Ref Frames
  7. Format settings, CABAC                   : Yes
  8. Format settings, Reference frames        : 2 frames
  9. Format settings, GOP                     : M=3, N=50
  10. Codec ID                                 : V_MPEG4/ISO/AVC
  11. Duration                                 : 1 h 32 min
  12. Bit rate mode                            : Constant
  13. Bit rate                                 : 7 830 kb/s
  14. Width                                    : 1 920 pixels
  15. Height                                   : 1 080 pixels
  16. Display aspect ratio                     : 16:9
  17. Frame rate mode                          : Constant
  18. Frame rate                               : 25.000 FPS
  19. Color space                              : YUV
  20. Chroma subsampling                       : 4:2:0
  21. Bit depth                                : 8 bits
  22. Scan type                                : Progressive
  23. Bits/(Pixel*Frame)                       : 0.151
  24. Stream size                              : 5.03 GiB (98%)
  25. Default                                  : Yes
  26. Forced                                   : No
  27. Audio
  28. ID                                       : 2
  29. Format                                   : AAC LC
  30. Format/Info                              : Advanced Audio Codec Low Complexity
  31. Codec ID                                 : A_AAC-2
  32. Duration                                 : 1 h 32 min
  33. Bit rate                                 : 128 kb/s
  34. Channel(s)                               : 2 channels
  35. Channel layout                           : L R
  36. Sampling rate                            : 48.0 kHz
  37. Frame rate                               : 46.875 FPS (1024 SPF)
  38. Compression mode                         : Lossy
  39. Stream size                              : 84.5 MiB (2%)
  40. Language                                 : English
  41. Default                                  : Yes
  42. Forced                                   : No
  43. Text #1
  44. ID                                       : 3
  45. Format                                   : UTF-8
  46. Codec ID                                 : S_TEXT/UTF8
  47. Codec ID/Info                            : UTF-8 Plain Text
  48. Duration                                 : 1 h 27 min
  49. Bit rate                                 : 53 b/s
  50. Count of elements                        : 1090
  51. Stream size                              : 34.6 KiB (0%)
  52. Language                                 : English
  53. Default                                  : No
  54. Forced                                   : No
  55. Text #2
  56. ID                                       : 4
  57. Format                                   : UTF-8
  58. Codec ID                                 : S_TEXT/UTF8
  59. Codec ID/Info                            : UTF-8 Plain Text
  60. Duration                                 : 1 h 27 min
  61. Bit rate                                 : 54 b/s
  62. Count of elements                        : 1129
  63. Stream size                              : 35.3 KiB (0%)
  64. Title                                    : SDH
  65. Language                                 : English
  66. Default                                  : No
  67. Forced                                   : No
  68. Menu
  69. 01:28:03.000                             : en:Credits
复制代码






                                       
                                       

                                       
                                       
                                       




回复

使用道具 举报

懒得打字嘛,点击右侧快捷回复 【右侧内容,后台自定义】
您需要登录后才可以回帖 登录 | 立即加入

本版积分规则

Archiver|小黑屋| 蓝光电影网 |网站地图

Copyright © 2021 Comsenz Inc. Powered by 蓝光电影网

蓝光电影网

本站内容由用户自主分享和转载自互联网,转载目的在于传递更多信息,并不代表本网赞同其观点和对其真实性负责。

如有侵权、违反国家法律政策行为,请联系我们,我们会第一时间及时清除和处理!

举报反馈邮箱:[email protected]

快速回复 返回顶部 返回列表