找回密码

蓝光电影网

查看: 171|回复: 0

[喜剧] 全心全意 All.of.My.Heart.2015.1080p.AMZN.WEBRip.DDP5.1.x264-QOQ 4.73GB

[复制链接]
蓝光币
733
发表于 2021-10-24 14:25:12 | 显示全部楼层 |阅读模式


◎译  名 经心全意
◎片  名 all of my heart
◎年  代 2015
◎产  地 美国
◎类  别 笑剧 / 恋爱 / 家庭
◎语  言 英语
◎上映日期 2015-02-14(美国)
◎豆瓣评分 /10 from 0 users
◎豆瓣链接 https://movie.douban.com/subject/26330331/
◎片  长 81分钟
◎导  演 皮特·德路易斯 Peter DeLuise
◎主  演 莱西·沙伯特 Lacey Chabert
       布伦南·埃利奥特 Brennan Elliott
       爱德华·阿斯纳 Edward Asner
◎标  签 Hallmark
◎简  介


  A young caterer's life suddenly changes course when she inherits a country home and learns she must share it with a career-obsessed Wall Street trader. At first, these opposites do not attract, but feelings begin to change when they find themselves having to work side-by-side to restore their newly acquired home.
  1. Video
  2. ID                                       : 1
  3. Format                                   : AVC
  4. Format/Info                              : Advanced Video Codec
  5. Format profile                           : [email protected]
  6. Format settings                          : CABAC / 4 Ref Frames
  7. Format settings, CABAC                   : Yes
  8. Format settings, Reference frames        : 4 frames
  9. Codec ID                                 : V_MPEG4/ISO/AVC
  10. Duration                                 : 1 h 28 min
  11. Bit rate mode                            : Constant
  12. Bit rate                                 : 7 057 kb/s
  13. Nominal bit rate                         : 10 000 kb/s
  14. Width                                    : 1 920 pixels
  15. Height                                   : 1 080 pixels
  16. Display aspect ratio                     : 16:9
  17. Frame rate mode                          : Constant
  18. Frame rate                               : 23.976 (24000/1001/189150) FPS
  19. Color space                              : YUV
  20. Chroma subsampling                       : 4:2:0
  21. Bit depth                                : 8 bits
  22. Scan type                                : Progressive
  23. Bits/(Pixel*Frame)                       : 0.142
  24. Stream size                              : 4.34 GiB (92%)
  25. Default                                  : Yes
  26. Forced                                   : No
  27. Color range                              : Limited
  28. Color primaries                          : BT.709
  29. Transfer characteristics                 : BT.709
  30. Matrix coefficients                      : BT.709
  31. Audio
  32. ID                                       : 2
  33. Format                                   : E-AC-3
  34. Format/Info                              : Enhanced AC-3
  35. Commercial name                          : Dolby Digital Plus
  36. Codec ID                                 : A_EAC3
  37. Duration                                 : 1 h 28 min
  38. Bit rate mode                            : Constant
  39. Bit rate                                 : 640 kb/s
  40. Channel(s)                               : 6 channels
  41. Channel layout                           : L R C LFE Ls Rs
  42. Sampling rate                            : 48.0 kHz
  43. Frame rate                               : 31.250 FPS (1536 SPF)
  44. Compression mode                         : Lossy
  45. Stream size                              : 403 MiB (8%)
  46. Language                                 : English
  47. Service kind                             : Complete Main
  48. Default                                  : Yes
  49. Forced                                   : No
复制代码






                                       
                                       

                                       
                                       
                                       




回复

使用道具 举报

懒得打字嘛,点击右侧快捷回复 【右侧内容,后台自定义】
您需要登录后才可以回帖 登录 | 立即加入

本版积分规则

Archiver|小黑屋| 蓝光电影网 |网站地图

Copyright © 2021 Comsenz Inc. Powered by 蓝光电影网

蓝光电影网

本站内容由用户自主分享和转载自互联网,转载目的在于传递更多信息,并不代表本网赞同其观点和对其真实性负责。

如有侵权、违反国家法律政策行为,请联系我们,我们会第一时间及时清除和处理!

举报反馈邮箱:[email protected]

快速回复 返回顶部 返回列表