找回密码

蓝光电影网

查看: 371|回复: 1

[喜剧] 回归之路/复出痕迹 The.Comeback.Trail.2020.720p.BluRay.x264-VETO 4.67GB

[复制链接]
蓝光币
733
发表于 2021-10-24 15:06:15 | 显示全部楼层 |阅读模式


◎译  名 回归之路/复出痕迹/荷里活有个耆福党(港)/诈制片家(台)
◎片  名 The Comeback Trail
◎年  代 2020
◎产  地 美国,英国
◎类  别 笑剧 / 犯罪
◎语  言 英语
◎上映日期 2020-10-05(蒙特卡洛电影节)
◎豆瓣评分 6.5/10 from 258 users
◎豆瓣链接 https://movie.douban.com/subject/27146766/
◎片  长 104分钟
◎导  演 乔治·加洛 George Gallo
◎编  剧 乔治·加洛 George Gallo / 乔什?波斯纳 Josh Posner / Harry Hurwitz Harry Hurwitz
◎主  演 罗伯特·德尼罗 Robert De Niro
       汤米·李·琼斯 Tommy Lee Jones
       摩根·弗里曼 Morgan Freeman
       扎克·布拉夫 Zach Braff
       埃米尔·赫斯基 Emile Hirsch
       雪莉·李·拉尔夫 Sheryl Lee Ralph
       凯特?卡茨曼 Kate Katzman
       艾迪·格里芬 Eddie Griffin
       克里斯?穆利纳克斯 Chris Mullinax
       帕特里克·茂顿 Patrick Muldoon
       Julie Lott Julie Lott
       伯勒尔·戴斯托捏 Blerim Destani
       文森特·斯帕诺 Vincent Spano
       保罗?威滕 Paul Witten
       艾琳·麦基尔南 Aighleann McKiernan
       梅丽莎?格林斯潘 Melissa Greenspan
       乔尔·迈克利 Joel Michaely
       杰梅因·华盛顿 Jermaine Washington
       Dan Hanks Dan Hanks
       马尔科姆·巴雷特 Malcolm Barrett
       弗兰西斯·李·麦克凯恩 Frances Lee McCain
       莱斯莉·斯特拉顿 Leslie Stratton
       米歇尔·梅林 Michelle Maylene
       娜塔莉·伯恩 Natalie Burn
       尼克·瓦莱隆加 Nick Vallelonga
       弗兰克·伦祖利 Frank Renzulli
       费尔南多·劳拉 Fernando Lara
       J·内森·西蒙斯 J. Nathan Simmons
       叶卡捷琳娜·贝克 Ekaterina Baker
◎标  签 笑剧 | 美国 | 罗伯特·德尼罗 | 摩根·弗里曼 | 美国电影 | 行动 | 2020 | 犯罪
◎简  介


  罗伯特·德尼罗、汤米·李·琼斯、摩根·弗里曼将出演乔治·加洛执导的行动笑剧新片[回归之路](The Comeback Trail,暂译)。德尼罗饰演一个欠黑帮老迈(弗里曼饰)债的人麦克斯·巴伯。因而在一部写得很差的西部片中,他选了一个安于现状、有自杀偏向的牛仔影星杜克·蒙塔纳(琼斯饰)来演配角,并筹算在开拍的头几天杀死他 ,从而制造一路保险欺骗案。可杜克忽然抖擞起来,填补了他曩昔的毛病,并率领麦克斯与其他人一路走上了回归之路。该片由乔希·波斯纳与导演配合按照上世纪70年月的同名电影撰写剧本,将于6月在新墨西哥州开拍。
  1. Video
  2. ID                                       : 1
  3. Format                                   : AVC
  4. Format/Info                              : Advanced Video Codec
  5. Format profile                           : [email protected]
  6. Format settings                          : CABAC / 8 Ref Frames
  7. Format settings, CABAC                   : Yes
  8. Format settings, Reference frames        : 8 frames
  9. Codec ID                                 : V_MPEG4/ISO/AVC
  10. Duration                                 : 1 h 43 min
  11. Bit rate                                 : 5 732 kb/s
  12. Width                                    : 1 280 pixels
  13. Height                                   : 536 pixels
  14. Display aspect ratio                     : 2.40:1
  15. Frame rate mode                          : Constant
  16. Frame rate                               : 23.976 (24000/1001/189150) FPS
  17. Color space                              : YUV
  18. Chroma subsampling                       : 4:2:0
  19. Bit depth                                : 8 bits
  20. Scan type                                : Progressive
  21. Bits/(Pixel*Frame)                       : 0.348
  22. Stream size                              : 4.14 GiB (90%)
  23. Writing library                          : x264 core 164 r3075 66a5bc1
  24. Encoding settings                        : cabac=1 / ref=8 / deblock=1:-3:-3 / analyse=0x3:0x133 / me=umh / subme=9 / psy=1 / psy_rd=1.00:0.00 / mixed_ref=1 / me_range=16 / chroma_me=1 / trellis=2 / 8x8dct=1 / cqm=0 / deadzone=21,11 / fast_pskip=0 / chroma_qp_offset=-2 / threads=24 / lookahead_threads=2 / sliced_threads=0 / nr=0 / decimate=0 / interlaced=0 / bluray_compat=0 / constrained_intra=0 / bframes=3 / b_pyramid=2 / b_adapt=2 / b_bias=0 / direct=3 / weightb=1 / open_gop=0 / weightp=2 / keyint=250 / keyint_min=23 / scenecut=40 / intra_refresh=0 / rc=crf / mbtree=0 / crf=16.0 / qcomp=0.60 / qpmin=0 / qpmax=69 / qpstep=4 / ip_ratio=1.40 / pb_ratio=1.30 / aq=3:0.70
  25. Language                                 : English
  26. Default                                  : Yes
  27. Forced                                   : No
  28. Color range                              : Limited
  29. Matrix coefficients                      : BT.709

  30. Audio
  31. ID                                       : 2
  32. Format                                   : AC-3
  33. Format/Info                              : Audio Coding 3
  34. Commercial name                          : Dolby Digital
  35. Codec ID                                 : A_AC3
  36. Duration                                 : 1 h 43 min
  37. Bit rate mode                            : Constant
  38. Bit rate                                 : 640 kb/s
  39. Channel(s)                               : 6 channels
  40. Channel layout                           : L R C LFE Ls Rs
  41. Sampling rate                            : 48.0 kHz
  42. Frame rate                               : 31.250 FPS (1536 SPF)
  43. Compression mode                         : Lossy
  44. Stream size                              : 473 MiB (10%)
  45. Language                                 : English
  46. Service kind                             : Complete Main
  47. Default                                  : Yes
  48. Forced                                   : No

  49. Text #1
  50. ID                                       : 3
  51. Format                                   : UTF-8
  52. Codec ID                                 : S_TEXT/UTF8
  53. Codec ID/Info                            : UTF-8 Plain Text
  54. Duration                                 : 1 h 39 min
  55. Bit rate                                 : 88 b/s
  56. Count of elements                        : 2068
  57. Stream size                              : 64.7 KiB (0%)
  58. Title                                    : English (SRT)
  59. Language                                 : English
  60. Default                                  : No
  61. Forced                                   : No

  62. Text #2
  63. ID                                       : 4
  64. Format                                   : UTF-8
  65. Codec ID                                 : S_TEXT/UTF8
  66. Codec ID/Info                            : UTF-8 Plain Text
  67. Duration                                 : 1 h 40 min
  68. Bit rate                                 : 94 b/s
  69. Count of elements                        : 2195
  70. Stream size                              : 69.2 KiB (0%)
  71. Title                                    : English (SDH SRT)
  72. Language                                 : English
  73. Default                                  : No
  74. Forced                                   : No

  75. Text #3
  76. ID                                       : 5
  77. Format                                   : PGS
  78. Muxing mode                              : zlib
  79. Codec ID                                 : S_HDMV/PGS
  80. Codec ID/Info                            : Picture based subtitle format used on BDs/HD-DVDs
  81. Duration                                 : 1 h 40 min
  82. Bit rate                                 : 45.1 kb/s
  83. Count of elements                        : 4295
  84. Stream size                              : 32.5 MiB (1%)
  85. Title                                    : English (SDH)
  86. Language                                 : English
  87. Default                                  : No
  88. Forced                                   : No

  89. Menu
  90. 00:00:00.000                             : en:Chapter 01
  91. 00:08:25.797                             : en:Chapter 02
  92. 00:21:32.249                             : en:Chapter 03
  93. 00:31:36.311                             : en:Chapter 04
  94. 00:40:49.781                             : en:Chapter 05
  95. 00:49:53.741                             : en:Chapter 06
  96. 00:59:12.090                             : en:Chapter 07
  97. 01:10:14.252                             : en:Chapter 08
  98. 01:19:31.600                             : en:Chapter 09
  99. 01:35:32.769                             : en:Chapter 10
复制代码





                                       
                                       

                                       
                                       
                                       




回复

使用道具 举报

蓝光币
30
发表于 2021-10-27 15:08:01 | 显示全部楼层

既然你诚信诚意的推荐了,那我就勉为其难的看看吧!蓝光电影网不走平凡路。
回复 支持 反对

使用道具 举报

懒得打字嘛,点击右侧快捷回复 【右侧内容,后台自定义】
您需要登录后才可以回帖 登录 | 立即加入

本版积分规则

Archiver|小黑屋| 蓝光电影网 |网站地图

Copyright © 2021 Comsenz Inc. Powered by 蓝光电影网

蓝光电影网

本站内容由用户自主分享和转载自互联网,转载目的在于传递更多信息,并不代表本网赞同其观点和对其真实性负责。

如有侵权、违反国家法律政策行为,请联系我们,我们会第一时间及时清除和处理!

举报反馈邮箱:[email protected]

快速回复 返回顶部 返回列表