找回密码

蓝光电影网

查看: 113|回复: 0

[剧情] 年轻的心叛逆的心/年轻灵魂的反叛 Young.Soul.Rebels.1991.1080p.NOW.WEBRip.AAC2.0.x264-QOQ 5.58GB

[复制链接]
蓝光币
682
发表于 2021-10-24 19:42:47 | 显示全部楼层 |阅读模式


◎译  名 年轻的心,叛逆的心/年轻灵魂的叛逆
◎片  名 Young Soul Rebels
◎年  代 1991
◎产  地 英国,法国,德国,西班牙
◎类  别 剧情 / 音乐
◎语  言 英语
◎上映日期 1991-08-09
◎豆瓣评分 6.8/10 from 40 users
◎豆瓣链接 https://movie.douban.com/subject/3023773/
◎片  长 105 分钟
◎导  演 伊萨克·朱利恩 Isaac Julien
◎编  剧 伊萨克·朱利恩 Isaac Julien
◎主  演 苏菲·奥康内多 Sophie Okonedo
       Dorian Healy Dorian Healy
       弗兰西斯·巴贝 Frances Barber
       亚当·普里斯 Adam Price
       伊默恩·沃克 Eamonn Walker
       杰森·杜尔 Jason Durr
◎标  签 英国 | IsaacJulien | 1990s | 1991 | 同性 | Queer | Isaac_Julien | 英國
◎简  介


  《年轻的心,叛逆的心》是英国黑人导演艾萨克·朱利安的第二部作品和第一部剧情片,为他赢得了昔时戛纳电影节国际影评人周的最好影片奖。
  
  故事发生在二十世纪七十年月前期青年文化活动中的英国伦敦,仆人公是一家不法朋克电台的两位黑人DJ,其中一位是同性恋,另一位则在四周同性恋公园里一路谋杀案发生后被思疑是凶手……
  1. Video
  2. ID                                       : 1
  3. Format                                   : AVC
  4. Format/Info                              : Advanced Video Codec
  5. Format profile                           : [email protected]
  6. Format settings                          : CABAC / 2 Ref Frames
  7. Format settings, CABAC                   : Yes
  8. Format settings, Reference frames        : 2 frames
  9. Format settings, GOP                     : M=3, N=50
  10. Codec ID                                 : V_MPEG4/ISO/AVC
  11. Duration                                 : 1 h 40 min
  12. Bit rate mode                            : Constant
  13. Bit rate                                 : 7 830 kb/s
  14. Width                                    : 1 920 pixels
  15. Height                                   : 1 080 pixels
  16. Display aspect ratio                     : 16:9
  17. Frame rate mode                          : Constant
  18. Frame rate                               : 25.000 FPS
  19. Color space                              : YUV
  20. Chroma subsampling                       : 4:2:0
  21. Bit depth                                : 8 bits
  22. Scan type                                : Progressive
  23. Bits/(Pixel*Frame)                       : 0.151
  24. Stream size                              : 5.49 GiB (98%)
  25. Default                                  : Yes
  26. Forced                                   : No
  27. Audio
  28. ID                                       : 2
  29. Format                                   : AAC LC
  30. Format/Info                              : Advanced Audio Codec Low Complexity
  31. Codec ID                                 : A_AAC-2
  32. Duration                                 : 1 h 40 min
  33. Bit rate                                 : 128 kb/s
  34. Channel(s)                               : 2 channels
  35. Channel layout                           : L R
  36. Sampling rate                            : 48.0 kHz
  37. Frame rate                               : 46.875 FPS (1024 SPF)
  38. Compression mode                         : Lossy
  39. Stream size                              : 91.9 MiB (2%)
  40. Language                                 : English
  41. Default                                  : Yes
  42. Forced                                   : No
  43. Text #1
  44. ID                                       : 3
  45. Format                                   : UTF-8
  46. Codec ID                                 : S_TEXT/UTF8
  47. Codec ID/Info                            : UTF-8 Plain Text
  48. Duration                                 : 1 h 39 min
  49. Bit rate                                 : 56 b/s
  50. Count of elements                        : 1105
  51. Stream size                              : 40.9 KiB (0%)
  52. Language                                 : English
  53. Default                                  : No
  54. Forced                                   : No
  55. Text #2
  56. ID                                       : 4
  57. Format                                   : UTF-8
  58. Codec ID                                 : S_TEXT/UTF8
  59. Codec ID/Info                            : UTF-8 Plain Text
  60. Duration                                 : 1 h 39 min
  61. Bit rate                                 : 59 b/s
  62. Count of elements                        : 1200
  63. Stream size                              : 43.1 KiB (0%)
  64. Title                                    : SDH
  65. Language                                 : English
  66. Default                                  : No
  67. Forced                                   : No
  68. Menu
  69. 01:37:50.000                             : en:Credits
复制代码






                                       
                                       

                                       
                                       
                                       




回复

使用道具 举报

懒得打字嘛,点击右侧快捷回复 【右侧内容,后台自定义】
您需要登录后才可以回帖 登录 | 立即加入

本版积分规则

Archiver|小黑屋| 蓝光电影网 |网站地图

Copyright © 2021 Comsenz Inc. Powered by 蓝光电影网

蓝光电影网

本站内容由用户自主分享和转载自互联网,转载目的在于传递更多信息,并不代表本网赞同其观点和对其真实性负责。

如有侵权、违反国家法律政策行为,请联系我们,我们会第一时间及时清除和处理!

举报反馈邮箱:[email protected]

快速回复 返回顶部 返回列表