找回密码

蓝光电影网

查看: 140|回复: 0

[剧情] 奈莉·拉普:怪物特工 Nelly.Rapp.Monster.Agent.2020.DUBBED.1080p.AMZN.WEBRip.DDP5.1.x264-NOGRP 2.86GB

[复制链接]
蓝光币
733
发表于 2021-10-25 09:10:46 | 显示全部楼层 |阅读模式


◎译  名 奈莉·拉普:怪物奸细/Nelly Rapp: Monster Agent
◎片  名 Nelly Rapp - Monsteragent
◎年  代 2020
◎产  地 瑞典
◎类  别 剧情 / 家庭 / 儿童
◎语  言 瑞典语
◎上映日期 2020-10-22(哥德堡电影节) / 2020-10-23(瑞典)
◎豆瓣评分 /10 from 0 users
◎豆瓣链接 https://movie.douban.com/subject/34966089/
◎片  长 92分钟
◎导  演 阿曼达·阿道夫松 Amanda Adolfsson
◎主  演 尤汉·雷伯格 Johan Rheborg
       玛丽安娜·莫克 Marianne M?rck
       比约恩·古斯塔夫松 Bj?rn Gustafsson
       戴维·维贝格 David Wiberg
       艾米·黛蒙德 Amy Diamond
       Peter Lorentzon Peter Lorentzon
        Carina S?derman
       利夫·埃德伦德 Leif Edlund
◎标  签 Berlinale71 | 瑞典电影 | 柏林 | 奇异 | 儿童笑剧 | P-BerlinF新生代单元
◎简  介


  “Our mission is to protect the world from monsters and monsters from the world. But not to decide who is allowed to exist in the world.”
  
  Nelly has her own special way of seeing things. Where others are spooked, she remains unfazed. Monsters in the basement? One more reason to check the place out! No friends? Nelly will cope. Snooping around in Uncle Hannibal’s labyrinthine mansion, Nelly stumbles upon an incredible secret: her family has been keeping the peace between humans, zombies, vampires and other gruesome creatures for decades, as members of an international brigade of monster agents. Nelly wants to hunt monsters too, and proceeds to stir up a fair amount of dust. But what if she has been misled about who is actually responsible for fear and scariness?
  
  In this fantasy film, based on Martin Widmark’s book series of the same name, the pressure to conform is revealed as the true source of horror.
◎获奖情况
  第71届柏林国际电影节 ?(2021)
  新生代儿童单元最好影片(提名) 阿曼达·阿道夫松
  1. Video
  2. ID                                       : 1
  3. Format                                   : AVC
  4. Format/Info                              : Advanced Video Codec
  5. Format profile                           : [email protected]
  6. Format settings                          : CABAC / 4 Ref Frames
  7. Format settings, CABAC                   : Yes
  8. Format settings, Reference frames        : 4 frames
  9. Codec ID                                 : V_MPEG4/ISO/AVC
  10. Duration                                 : 1 h 31 min
  11. Bit rate                                 : 3 848 kb/s
  12. Width                                    : 1 920 pixels
  13. Height                                   : 816 pixels
  14. Display aspect ratio                     : 2.35:1
  15. Frame rate mode                          : Constant
  16. Frame rate                               : 24.000 FPS
  17. Color space                              : YUV
  18. Chroma subsampling                       : 4:2:0
  19. Bit depth                                : 8 bits
  20. Scan type                                : Progressive
  21. Bits/(Pixel*Frame)                       : 0.102
  22. Stream size                              : 2.45 GiB (86%)
  23. Default                                  : Yes
  24. Forced                                   : No
  25. Color range                              : Limited
  26. Color primaries                          : BT.709
  27. Transfer characteristics                 : BT.709
  28. Matrix coefficients                      : BT.709
  29. Audio
  30. ID                                       : 2
  31. Format                                   : E-AC-3
  32. Format/Info                              : Enhanced AC-3
  33. Commercial name                          : Dolby Digital Plus
  34. Codec ID                                 : A_EAC3
  35. Duration                                 : 1 h 31 min
  36. Bit rate mode                            : Constant
  37. Bit rate                                 : 640 kb/s
  38. Channel(s)                               : 6 channels
  39. Channel layout                           : L R C LFE Ls Rs
  40. Sampling rate                            : 48.0 kHz
  41. Frame rate                               : 31.250 FPS (1536 SPF)
  42. Compression mode                         : Lossy
  43. Stream size                              : 418 MiB (14%)
  44. Language                                 : English
  45. Service kind                             : Complete Main
  46. Default                                  : Yes
  47. Forced                                   : No
  48. Text
  49. ID                                       : 3
  50. Format                                   : UTF-8
  51. Codec ID                                 : S_TEXT/UTF8
  52. Codec ID/Info                            : UTF-8 Plain Text
  53. Duration                                 : 1 h 25 min
  54. Bit rate                                 : 45 b/s
  55. Count of elements                        : 1077
  56. Stream size                              : 28.4 KiB (0%)
  57. Language                                 : English
  58. Default                                  : No
  59. Forced                                   : No
复制代码







                                       
                                       

                                       
                                       
                                       




回复

使用道具 举报

懒得打字嘛,点击右侧快捷回复 【右侧内容,后台自定义】
您需要登录后才可以回帖 登录 | 立即加入

本版积分规则

Archiver|小黑屋| 蓝光电影网 |网站地图

Copyright © 2021 Comsenz Inc. Powered by 蓝光电影网

蓝光电影网

本站内容由用户自主分享和转载自互联网,转载目的在于传递更多信息,并不代表本网赞同其观点和对其真实性负责。

如有侵权、违反国家法律政策行为,请联系我们,我们会第一时间及时清除和处理!

举报反馈邮箱:[email protected]

快速回复 返回顶部 返回列表