找回密码

蓝光电影网

查看: 410|回复: 1

[喜剧] 汪汪队立大功大电影/汪汪队立大功电影版 PAW.Patrol.The.Movie.2021.1080p.BluRay.x264.TrueHD.7.1.Atmos-MT 7.68GB

[复制链接]
蓝光币
682
发表于 2021-10-25 10:12:55 | 显示全部楼层 |阅读模式


◎译  名 汪汪队立大功大电影/汪汪队立大功电影版(台)/狗狗巡查队
◎片  名 Paw Patrol: The Movie
◎年  代 2021
◎产  地 美国,加拿大
◎类  别 笑剧 / 动画 / 家庭 / 冒险
◎语  言 英语
◎上映日期 2021(中国大陆) / 2021-08-20(美国)
◎豆瓣评分 /10 from 0 users
◎豆瓣链接 https://movie.douban.com/subject/35045591/
◎片  长 88分钟
◎导  演 卡尔·布伦克尔 Cal Brunker
◎编  剧 鲍勃·巴伦 Bob Barlen / 卡尔·布伦克尔 Cal Brunker / 比利·弗罗利克 Billy Frolick
◎主  演 泰勒·派瑞 Tyler Perry
       罗恩·帕尔多 Ron Pardo
       威尔·布鲁斯宾 Will Brisbin
       金斯利·马歇尔 Kingsley Marshall
       基根·赫德利 Keegan Hedley
       伊恩·阿米蒂奇 Iain Armitage
       卡勒姆·肖尼克 Callum Shoniker
       谢尔·西蒙斯 Shayle Simons
       莉莉·巴特拉姆 Lilly Bartlam
       金·罗伯特 Kim Roberts
       保罗·布朗斯坦 Paul Braunstein
       马尔赛·马丁 Marsai Martin
       莫妮克·阿尔瓦雷斯 Monique Alvarez
       吉米·坎摩尔 Jimmy Kimmel
       杰米拉·罗斯 Jamillah Ross
       戴克斯·夏普德 Dax Shepard
       兰道尔·朴 Randall Park
       雅拉·沙希迪 Yara Shahidi
       乔希·罗伯特·汤普森 Josh Robert Thompson
       乔希·格雷厄姆 Josh Graham
       尼尔·克容 Neil Crone
       乔·平格 Joe Pingue
       金·卡戴珊 Kim Kardashian
       查理·加兰特 Charlie Gallant
       理查德·宾斯利 Richard Binsley
       雷欧·巴奈扎 Raoul Bhaneja
       莎拉·乔德利 Saara Chaudry
       Kevin Duhaney Kevin Duhaney
◎标  签 动画 | 2021 | 电影 | 童年 | 美国 | 美国动画 | 美国电影 | 笑剧
◎简  介


  汪汪队动身救济!邪恶的韩丁那成为了冒险湾的市长,而且预备对这座城市停止大举破坏。小男孩莱德和他勇敢的汪汪队小狗们必须打起十二分精神,预备驱逐全新的应战。与此同时,小狗阿奇不能不面临他在冒险湾复杂的曩昔。幸亏这时团队迎来了新的盟友,聪明的香肠犬贝贝。带着升级的兵器和装备,汪汪队已经预备好随时为拯救冒险湾的居民们而战!
  1. Video
  2. ID                                       : 1
  3. Format                                   : AVC
  4. Format/Info                              : Advanced Video Codec
  5. Format profile                           : [email protected]
  6. Format settings                          : CABAC / 5 Ref Frames
  7. Format settings, CABAC                   : Yes
  8. Format settings, Reference frames        : 5 frames
  9. Codec ID                                 : V_MPEG4/ISO/AVC
  10. Duration                                 : 1 h 26 min
  11. Bit rate                                 : 7 827 kb/s
  12. Width                                    : 1 920 pixels
  13. Height                                   : 800 pixels
  14. Display aspect ratio                     : 2.40:1
  15. Frame rate mode                          : Constant
  16. Frame rate                               : 23.976 (24000/1001/189150) FPS
  17. Color space                              : YUV
  18. Chroma subsampling                       : 4:2:0
  19. Bit depth                                : 8 bits
  20. Scan type                                : Progressive
  21. Bits/(Pixel*Frame)                       : 0.213
  22. Stream size                              : 4.70 GiB (61%)
  23. Writing library                          : x264 core 157 r2938 2b00a84 [email protected] Mod
  24. Encoding settings                        : cabac=1 / ref=5 / deblock=1:-3:-3 / analyse=0x3:0x133 / me=umh / subme=10 / psy=1 / psy_rd=1.05:0.00 / mixed_ref=1 / me_range=32 / chroma_me=1 / trellis=2 / 8x8dct=1 / cqm=0 / deadzone=21,11 / fast_pskip=0 / chroma_qp_offset=-2 / threads=12 / lookahead_threads=2 / sliced_threads=0 / nr=0 / decimate=0 / interlaced=0 / bluray_compat=0 / constrained_intra=0 / bframes=8 / b_pyramid=2 / b_adapt=2 / b_bias=0 / direct=3 / weightb=1 / open_gop=0 / weightp=2 / keyint=250 / keyint_min=24 / scenecut=40 / intra_refresh=0 / rc_lookahead=250 / rc=crf / mbtree=0 / crf=16.8 / qcomp=0.60 / qpmin=0 / qpmax=69 / qpstep=4 / vbv_maxrate=62500 / vbv_bufsize=78125 / crf_max=0.0 / nal_hrd=none / filler=0 / ip_ratio=1.30 / pb_ratio=1.20 / aq=3:0.80
  25. Language                                 : English
  26. Default                                  : Yes
  27. Forced                                   : No
  28. Color range                              : Limited
  29. Color primaries                          : BT.709
  30. Matrix coefficients                      : BT.709
  31. Audio #1
  32. ID                                       : 2
  33. Format                                   : MLP FBA 16-ch
  34. Format/Info                              : Meridian Lossless Packing FBA with 16-channel presentation
  35. Commercial name                          : Dolby TrueHD with Dolby Atmos
  36. Codec ID                                 : A_TRUEHD
  37. Duration                                 : 1 h 26 min
  38. Bit rate mode                            : Variable
  39. Bit rate                                 : 4 237 kb/s
  40. Maximum bit rate                         : 6 606 kb/s
  41. Channel(s)                               : 8 channels
  42. Channel layout                           : L R C LFE Ls Rs Lb Rb
  43. Sampling rate                            : 48.0 kHz
  44. Frame rate                               : 1 200.000 FPS (40 SPF)
  45. Compression mode                         : Lossless
  46. Stream size                              : 2.55 GiB (33%)
  47. Title                                    : TrueHD 7.1 Atmos
  48. Language                                 : English
  49. Default                                  : Yes
  50. Forced                                   : No
  51. Number of dynamic objects                : 11
  52. Bed channel count                        : 1 channel
  53. Bed channel configuration                : LFE
  54. Audio #2
  55. ID                                       : 3
  56. Format                                   : AC-3
  57. Format/Info                              : Audio Coding 3
  58. Commercial name                          : Dolby Digital
  59. Codec ID                                 : A_AC3
  60. Duration                                 : 1 h 26 min
  61. Bit rate mode                            : Constant
  62. Bit rate                                 : 640 kb/s
  63. Channel(s)                               : 6 channels
  64. Channel layout                           : L R C LFE Ls Rs
  65. Sampling rate                            : 48.0 kHz
  66. Frame rate                               : 31.250 FPS (1536 SPF)
  67. Compression mode                         : Lossy
  68. Stream size                              : 394 MiB (5%)
  69. Title                                    : DD 5.1
  70. Language                                 : English
  71. Service kind                             : Complete Main
  72. Default                                  : No
  73. Forced                                   : No
  74. Text #1
  75. ID                                       : 4
  76. Format                                   : UTF-8
  77. Codec ID                                 : S_TEXT/UTF8
  78. Codec ID/Info                            : UTF-8 Plain Text
  79. Duration                                 : 1 h 16 min
  80. Bit rate                                 : 56 b/s
  81. Count of elements                        : 1048
  82. Stream size                              : 31.8 KiB (0%)
  83. Title                                    : SRT
  84. Language                                 : English
  85. Default                                  : Yes
  86. Forced                                   : No
  87. Text #2
  88. ID                                       : 5
  89. Format                                   : PGS
  90. Muxing mode                              : zlib
  91. Codec ID                                 : S_HDMV/PGS
  92. Codec ID/Info                            : Picture based subtitle format used on BDs/HD-DVDs
  93. Duration                                 : 1 h 16 min
  94. Bit rate                                 : 37.0 kb/s
  95. Count of elements                        : 2108
  96. Stream size                              : 20.3 MiB (0%)
  97. Language                                 : English
  98. Default                                  : No
  99. Forced                                   : No
  100. Menu
  101. 00:00:00.000                             : en:Chapter 01
  102. 00:06:45.488                             : en:Chapter 02
  103. 00:13:25.304                             : en:Chapter 03
  104. 00:20:28.269                             : en:Chapter 04
  105. 00:26:21.079                             : en:Chapter 05
  106. 00:32:57.309                             : en:Chapter 06
  107. 00:37:40.633                             : en:Chapter 07
  108. 00:44:39.427                             : en:Chapter 08
  109. 00:49:59.663                             : en:Chapter 09
  110. 00:55:14.937                             : en:Chapter 10
  111. 01:02:39.214                             : en:Chapter 11
  112. 01:11:12.560                             : en:Chapter 12
  113. 01:17:17.925                             : en:Chapter 13
复制代码







                                       
                                       

                                       
                                       
                                       




回复

使用道具 举报

蓝光币
73
发表于 2021-10-27 19:20:12 | 显示全部楼层
楼主发贴辛苦了,谢谢楼主分享!我觉得蓝光电影网是注册对了!
回复 支持 反对

使用道具 举报

懒得打字嘛,点击右侧快捷回复 【右侧内容,后台自定义】
您需要登录后才可以回帖 登录 | 立即加入

本版积分规则

Archiver|小黑屋| 蓝光电影网 |网站地图

Copyright © 2021 Comsenz Inc. Powered by 蓝光电影网

蓝光电影网

本站内容由用户自主分享和转载自互联网,转载目的在于传递更多信息,并不代表本网赞同其观点和对其真实性负责。

如有侵权、违反国家法律政策行为,请联系我们,我们会第一时间及时清除和处理!

举报反馈邮箱:[email protected]

快速回复 返回顶部 返回列表