找回密码

蓝光电影网

查看: 400|回复: 0

[剧情] 致命群蜂/致命蜂群 The.Deadly.Bees.1966.iNTERNAL.1080p.BluRay.x264-GUACAMOLE 10.94GB

[复制链接]
蓝光币
730
发表于 2021-10-25 10:53:11 | 显示全部楼层 |阅读模式


◎译  名 致命群蜂/致命蜂群
◎片  名 The Deadly Bees
◎年  代 1966
◎产  地 英国
◎类  别 剧情 / 悬疑 / 惊悚 / 可骇
◎语  言 英语
◎上映日期 1966-12-23(德明点映) / 1967-04(英国)
◎豆瓣评分 /10 from 0 users
◎豆瓣链接 https://movie.douban.com/subject/5057337/
◎片  长 83 分钟
◎导  演 弗雷迪·弗朗西斯 Freddie Francis
◎编  剧 罗伯特·布洛克 Robert Bloch / H.F. Heard H.F. Heard
◎主  演 苏珊娜·蕾 Suzanna Leigh
       弗兰克·芬莱 Frank Finlay
       盖·唐尔曼 Guy Doleman
       Kim Gardner Kim Gardner
       荣·伍德 Ron Wood
       迈克尔·里佩尔 Michael Ripper
       Michael Gwynn Michael Gwynn
       John Harvey John Harvey
       Frank Forsyth Frank Forsyth
       帕西·爱德华斯 Percy Edwards
       詹姆斯·科辛斯 James Cossins
       安东尼·贝利 Anthony Bailey
◎标  签 惊悚 | 悬疑 | 英国 | 可骇 | 英国电影 | 英國 | 1966 | 美国
◎简  介


  一个疲惫的风行歌手前往农场度假,发现农场的仆人养着致命的蜜蜂。
  1. Video
  2. ID                                       : 1
  3. Format                                   : AVC
  4. Format/Info                              : Advanced Video Codec
  5. Format profile                           : [email protected]
  6. Format settings                          : CABAC / 4 Ref Frames
  7. Format settings, CABAC                   : Yes
  8. Format settings, Reference frames        : 4 frames
  9. Codec ID                                 : V_MPEG4/ISO/AVC
  10. Duration                                 : 1 h 23 min
  11. Bit rate                                 : 18.4 Mb/s
  12. Width                                    : 1 920 pixels
  13. Height                                   : 1 080 pixels
  14. Display aspect ratio                     : 16:9
  15. Frame rate mode                          : Constant
  16. Frame rate                               : 23.976 (24000/1001/189150) FPS
  17. Color space                              : YUV
  18. Chroma subsampling                       : 4:2:0
  19. Bit depth                                : 8 bits
  20. Scan type                                : Progressive
  21. Bits/(Pixel*Frame)                       : 0.370
  22. Stream size                              : 10.8 GiB (98%)
  23. Writing library                          : x264 core 164 r3075 66a5bc1
  24. Encoding settings                        : cabac=1 / ref=4 / deblock=1:-3:-3 / analyse=0x3:0x133 / me=umh / subme=9 / psy=1 / psy_rd=1.00:0.00 / mixed_ref=1 / me_range=16 / chroma_me=1 / trellis=2 / 8x8dct=1 / cqm=0 / deadzone=21,11 / fast_pskip=0 / chroma_qp_offset=-2 / threads=34 / lookahead_threads=2 / sliced_threads=0 / nr=0 / decimate=1 / interlaced=0 / bluray_compat=0 / constrained_intra=0 / bframes=3 / b_pyramid=2 / b_adapt=2 / b_bias=0 / direct=3 / weightb=1 / open_gop=0 / weightp=2 / keyint=250 / keyint_min=23 / scenecut=40 / intra_refresh=0 / rc_lookahead=60 / rc=crf / mbtree=1 / crf=19.0 / qcomp=0.60 / qpmin=0 / qpmax=69 / qpstep=4 / ip_ratio=1.40 / aq=3:0.60
  25. Default                                  : Yes
  26. Forced                                   : No
  27. Color range                              : Limited
  28. Matrix coefficients                      : BT.709

  29. Audio
  30. ID                                       : 2
  31. Format                                   : FLAC
  32. Format/Info                              : Free Lossless Audio Codec
  33. Codec ID                                 : A_FLAC
  34. Duration                                 : 1 h 23 min
  35. Bit rate mode                            : Variable
  36. Bit rate                                 : 284 kb/s
  37. Channel(s)                               : 2 channels
  38. Channel layout                           : L R
  39. Sampling rate                            : 48.0 kHz
  40. Frame rate                               : 11.719 FPS (4096 SPF)
  41. Bit depth                                : 16 bits
  42. Compression mode                         : Lossless
  43. Stream size                              : 170 MiB (2%)
  44. Writing library                          : libFLAC 1.2.1 (UTC 2007-09-17)
  45. Language                                 : English
  46. Default                                  : Yes
  47. Forced                                   : No

  48. Text #1
  49. ID                                       : 3
  50. Format                                   : PGS
  51. Muxing mode                              : zlib
  52. Codec ID                                 : S_HDMV/PGS
  53. Codec ID/Info                            : Picture based subtitle format used on BDs/HD-DVDs
  54. Duration                                 : 1 h 20 min
  55. Bit rate                                 : 9 792 b/s
  56. Count of elements                        : 1376
  57. Stream size                              : 5.61 MiB (0%)
  58. Language                                 : German
  59. Default                                  : No
  60. Forced                                   : No

  61. Text #2
  62. ID                                       : 4
  63. Format                                   : PGS
  64. Muxing mode                              : zlib
  65. Codec ID                                 : S_HDMV/PGS
  66. Codec ID/Info                            : Picture based subtitle format used on BDs/HD-DVDs
  67. Duration                                 : 1 h 20 min
  68. Bit rate                                 : 9 245 b/s
  69. Count of elements                        : 1389
  70. Stream size                              : 5.29 MiB (0%)
  71. Language                                 : English
  72. Default                                  : No
  73. Forced                                   : No

  74. Menu
  75. 00:00:00.000                             : en:00:00:00.000
  76. 00:07:04.424                             : en:00:07:04.424
  77. 00:11:53.713                             : en:00:11:53.713
  78. 00:21:08.267                             : en:00:21:08.267
  79. 00:27:08.627                             : en:00:27:08.627
  80. 00:34:56.094                             : en:00:34:56.094
  81. 00:41:07.465                             : en:00:41:07.465
  82. 00:47:06.824                             : en:00:47:06.824
  83. 00:55:26.323                             : en:00:55:26.323
  84. 01:03:05.782                             : en:01:03:05.782
  85. 01:09:34.170                             : en:01:09:34.170
  86. 01:15:33.529                             : en:01:15:33.529
复制代码





                                       
                                       

                                       
                                       
                                       




回复

使用道具 举报

懒得打字嘛,点击右侧快捷回复 【右侧内容,后台自定义】
您需要登录后才可以回帖 登录 | 立即加入

本版积分规则

Archiver|小黑屋| 蓝光电影网 |网站地图

Copyright © 2021 Comsenz Inc. Powered by 蓝光电影网

蓝光电影网

本站内容由用户自主分享和转载自互联网,转载目的在于传递更多信息,并不代表本网赞同其观点和对其真实性负责。

如有侵权、违反国家法律政策行为,请联系我们,我们会第一时间及时清除和处理!

举报反馈邮箱:[email protected]

快速回复 返回顶部 返回列表