找回密码

蓝光电影网

查看: 453|回复: 2

[剧情] 东方 The.East.2020.1080p.BluRay.x264.DTS-HD.MA.5.1-MT 18.49GB

[复制链接]
蓝光币
733
发表于 2021-10-25 10:46:39 | 显示全部楼层 |阅读模式


◎译  名 东方
◎片  名 De Oost
◎年  代 2020
◎产  地 荷兰
◎类  别 剧情 / 战争
◎语  言 荷兰语,印尼语
◎上映日期 2020-09-10(荷兰)
◎豆瓣评分 /10 from 0 users
◎豆瓣链接 https://movie.douban.com/subject/34919081/
◎片  长 137分钟
◎导  演 吉姆·泰华图 Jim Taihuttu
◎主  演 马尔万·肯扎里 Marwan Kenzari
       休·史密特 Huub Smit
       马汀·雷克梅尔 Martijn Lakemeier
       科恩·布里尔 Coen Bril
       乔纳斯·斯莫德斯 Jonas Smulders
       戴维·沃斯特斯 David Wristers
◎标  签 战争 | 荷兰 | 欧洲 | 暴力 | 外语片 | 行动 | 3M稀影基地论坛 | 3M稀影基地
◎简  介


  1940年印度尼西亚自力战争中一位荷兰典狱长的故事
  1. Video
  2. ID                                       : 1
  3. Format                                   : AVC
  4. Format/Info                              : Advanced Video Codec
  5. Format profile                           : [email protected]
  6. Format settings                          : CABAC / 4 Ref Frames
  7. Format settings, CABAC                   : Yes
  8. Format settings, Reference frames        : 4 frames
  9. Codec ID                                 : V_MPEG4/ISO/AVC
  10. Duration                                 : 2 h 21 min
  11. Bit rate                                 : 17.0 Mb/s
  12. Width                                    : 1 920 pixels
  13. Height                                   : 1 040 pixels
  14. Display aspect ratio                     : 1.85:1
  15. Frame rate mode                          : Constant
  16. Frame rate                               : 23.976 (24000/1001/189150) FPS
  17. Color space                              : YUV
  18. Chroma subsampling                       : 4:2:0
  19. Bit depth                                : 8 bits
  20. Scan type                                : Progressive
  21. Bits/(Pixel*Frame)                       : 0.355
  22. Stream size                              : 16.8 GiB (91%)
  23. Writing library                          : x264 core 157 r2938 2b00a84 [email protected] Mod
  24. Encoding settings                        : cabac=1 / ref=4 / deblock=1:-3:-3 / analyse=0x3:0x133 / me=umh / subme=10 / psy=1 / psy_rd=1.05:0.00 / mixed_ref=1 / me_range=32 / chroma_me=1 / trellis=2 / 8x8dct=1 / cqm=0 / deadzone=21,11 / fast_pskip=0 / chroma_qp_offset=-2 / threads=12 / lookahead_threads=2 / sliced_threads=0 / nr=0 / decimate=0 / interlaced=0 / bluray_compat=0 / constrained_intra=0 / bframes=8 / b_pyramid=2 / b_adapt=2 / b_bias=0 / direct=3 / weightb=1 / open_gop=0 / weightp=2 / keyint=250 / keyint_min=24 / scenecut=40 / intra_refresh=0 / rc_lookahead=250 / rc=crf / mbtree=0 / crf=16.8 / qcomp=0.60 / qpmin=0 / qpmax=69 / qpstep=4 / vbv_maxrate=62500 / vbv_bufsize=78125 / crf_max=0.0 / nal_hrd=none / filler=0 / ip_ratio=1.30 / pb_ratio=1.20 / aq=3:0.80
  25. Language                                 : English
  26. Default                                  : Yes
  27. Forced                                   : No
  28. Color range                              : Limited
  29. Color primaries                          : BT.709
  30. Matrix coefficients                      : BT.709
  31. Audio
  32. ID                                       : 2
  33. Format                                   : DTS XLL
  34. Format/Info                              : Digital Theater Systems
  35. Commercial name                          : DTS-HD Master Audio
  36. Codec ID                                 : A_DTS
  37. Duration                                 : 2 h 21 min
  38. Bit rate mode                            : Variable
  39. Bit rate                                 : 1 722 kb/s
  40. Channel(s)                               : 6 channels
  41. Channel layout                           : C L R Ls Rs LFE
  42. Sampling rate                            : 48.0 kHz
  43. Frame rate                               : 93.750 FPS (512 SPF)
  44. Bit depth                                : 16 bits
  45. Compression mode                         : Lossless
  46. Stream size                              : 1.70 GiB (9%)
  47. Language                                 : English
  48. Default                                  : Yes
  49. Forced                                   : No
  50. Text #1
  51. ID                                       : 3
  52. Format                                   : UTF-8
  53. Codec ID                                 : S_TEXT/UTF8
  54. Codec ID/Info                            : UTF-8 Plain Text
  55. Duration                                 : 2 h 16 min
  56. Bit rate                                 : 39 b/s
  57. Count of elements                        : 1282
  58. Stream size                              : 39.9 KiB (0%)
  59. Title                                    : SRT
  60. Language                                 : English
  61. Default                                  : Yes
  62. Forced                                   : No
  63. Text #2
  64. ID                                       : 4
  65. Format                                   : PGS
  66. Muxing mode                              : zlib
  67. Codec ID                                 : S_HDMV/PGS
  68. Codec ID/Info                            : Picture based subtitle format used on BDs/HD-DVDs
  69. Duration                                 : 2 h 16 min
  70. Bit rate                                 : 45.2 kb/s
  71. Count of elements                        : 2564
  72. Stream size                              : 44.2 MiB (0%)
  73. Language                                 : English
  74. Default                                  : No
  75. Forced                                   : No
  76. Menu
  77. 00:00:00.000                             : en:Chapter 01
  78. 00:08:17.789                             : en:Chapter 02
  79. 00:15:37.937                             : en:Chapter 03
  80. 00:24:40.479                             : en:Chapter 04
  81. 00:34:05.043                             : en:Chapter 05
  82. 00:42:06.524                             : en:Chapter 06
  83. 00:51:34.091                             : en:Chapter 07
  84. 00:59:38.575                             : en:Chapter 08
  85. 01:09:33.169                             : en:Chapter 09
  86. 01:19:33.769                             : en:Chapter 10
  87. 01:30:24.419                             : en:Chapter 11
  88. 01:38:35.910                             : en:Chapter 12
  89. 01:48:33.507                             : en:Chapter 13
  90. 01:55:42.936                             : en:Chapter 14
  91. 02:05:02.495                             : en:Chapter 15
  92. 02:15:38.339                             : en:Chapter 16
复制代码






                                       
                                       

                                       
                                       
                                       




回复

使用道具 举报

蓝光币
153
发表于 2021-10-25 18:36:37 | 显示全部楼层
感谢楼主的辛勤劳动。
回复 支持 反对

使用道具 举报

蓝光币
91
发表于 2021-10-29 00:38:04 | 显示全部楼层
楼主发贴辛苦了,谢谢楼主分享!我觉得蓝光电影网是注册对了!
回复 支持 反对

使用道具 举报

懒得打字嘛,点击右侧快捷回复 【右侧内容,后台自定义】
您需要登录后才可以回帖 登录 | 立即加入

本版积分规则

Archiver|小黑屋| 蓝光电影网 |网站地图

Copyright © 2021 Comsenz Inc. Powered by 蓝光电影网

蓝光电影网

本站内容由用户自主分享和转载自互联网,转载目的在于传递更多信息,并不代表本网赞同其观点和对其真实性负责。

如有侵权、违反国家法律政策行为,请联系我们,我们会第一时间及时清除和处理!

举报反馈邮箱:[email protected]

快速回复 返回顶部 返回列表