找回密码

蓝光电影网

查看: 733|回复: 2

[动作] 亡者之湿/不湿丧军 Aquarium.of.the.Dead.2021.1080p.BluRay.x264-FREEMAN 7.21GB

[复制链接]
蓝光币
733
发表于 2021-10-25 11:46:22 | 显示全部楼层 |阅读模式


◎译  名 亡者之湿/不湿丧军/灭亡水族馆/活湿雄师
◎片  名 Aquarium of the Dead
◎年  代 2021
◎产  地 美国
◎类  别 行动 / 可骇
◎语  言 英语
◎上映日期 2021-05-21(美国)
◎豆瓣评分 2.7/10 from 101 users
◎豆瓣链接 https://movie.douban.com/subject/35351384/
◎片  长 86分钟
◎导  演 Glenn Miller Glenn Miller
◎编  剧  Michael Varrati
◎主  演 D.C.道格拉斯 D.C. Douglas
       安东尼·詹森 Anthony Jensen
       杰弗里·托马斯 Jeffery Thomas
        Torrey B. Lawrence
       薇薇卡·福克斯 Vivica A. Fox
       Eva Ceja Eva Ceja
       Madeleine Falk Madeleine Falk
       Erica Duke Erica Duke
       Anna Telfer Anna Telfer
◎标  签 可骇 | 惊悚 | 美国 | 荒诞 | 可骇电影 | 丧尸 | 美国电影 | 美国败北
◎简  介


  一个庞大的不幸来临在旅游水族馆的毫无戒心的人类身上,他们被迫为自己的生命而战,由于一个变态的科学变乱致使水生生物酿成了嗜血的丧尸。
  1. Video
  2. ID                                       : 1
  3. Format                                   : AVC
  4. Format/Info                              : Advanced Video Codec
  5. Format profile                           : [email protected]
  6. Format settings                          : CABAC / 5 Ref Frames
  7. Format settings, CABAC                   : Yes
  8. Format settings, Reference frames        : 5 frames
  9. Codec ID                                 : V_MPEG4/ISO/AVC
  10. Duration                                 : 1 h 25 min
  11. Bit rate                                 : 9 958 kb/s
  12. Width                                    : 1 920 pixels
  13. Height                                   : 804 pixels
  14. Display aspect ratio                     : 2.40:1
  15. Frame rate mode                          : Constant
  16. Frame rate                               : 23.976 (24000/1001/189150) FPS
  17. Color space                              : YUV
  18. Chroma subsampling                       : 4:2:0
  19. Bit depth                                : 8 bits
  20. Scan type                                : Progressive
  21. Bits/(Pixel*Frame)                       : 0.269
  22. Stream size                              : 5.96 GiB (83%)
  23. Writing library                          : x264 core 164 r3075 66a5bc1
  24. Encoding settings                        : cabac=1 / ref=5 / deblock=1:-3:-3 / analyse=0x3:0x133 / me=umh / subme=9 / psy=1 / psy_rd=1.00:0.00 / mixed_ref=1 / me_range=16 / chroma_me=1 / trellis=2 / 8x8dct=1 / cqm=0 / deadzone=21,11 / fast_pskip=0 / chroma_qp_offset=-2 / threads=24 / lookahead_threads=2 / sliced_threads=0 / nr=0 / decimate=1 / interlaced=0 / bluray_compat=0 / constrained_intra=0 / bframes=3 / b_pyramid=2 / b_adapt=2 / b_bias=0 / direct=3 / weightb=1 / open_gop=0 / weightp=2 / keyint=250 / keyint_min=23 / scenecut=40 / intra_refresh=0 / rc_lookahead=60 / rc=crf / mbtree=1 / crf=17.0 / qcomp=0.60 / qpmin=0 / qpmax=69 / qpstep=4 / ip_ratio=1.40 / aq=3:1.00
  25. Default                                  : Yes
  26. Forced                                   : No
  27. Color range                              : Limited
  28. Matrix coefficients                      : BT.709

  29. Audio
  30. ID                                       : 2
  31. Format                                   : DTS XLL
  32. Format/Info                              : Digital Theater Systems
  33. Commercial name                          : DTS-HD Master Audio
  34. Codec ID                                 : A_DTS
  35. Duration                                 : 1 h 25 min
  36. Bit rate mode                            : Variable
  37. Bit rate                                 : 2 087 kb/s
  38. Channel(s)                               : 6 channels
  39. Channel layout                           : C L R Ls Rs LFE
  40. Sampling rate                            : 48.0 kHz
  41. Frame rate                               : 93.750 FPS (512 SPF)
  42. Bit depth                                : 16 bits
  43. Compression mode                         : Lossless
  44. Stream size                              : 1.25 GiB (17%)
  45. Language                                 : English
  46. Default                                  : Yes
  47. Forced                                   : No

  48. Text
  49. ID                                       : 3
  50. Format                                   : PGS
  51. Muxing mode                              : zlib
  52. Codec ID                                 : S_HDMV/PGS
  53. Codec ID/Info                            : Picture based subtitle format used on BDs/HD-DVDs
  54. Duration                                 : 1 h 18 min
  55. Bit rate                                 : 96 b/s
  56. Count of elements                        : 22
  57. Stream size                              : 55.5 KiB (0%)
  58. Language                                 : German
  59. Default                                  : No
  60. Forced                                   : No

  61. Menu
  62. 00:00:00.000                             : en:00:00:00.000
  63. 00:12:53.272                             : en:00:12:53.272
  64. 00:22:26.971                             : en:00:22:26.971
  65. 00:30:41.840                             : en:00:30:41.840
  66. 00:40:32.013                             : en:00:40:32.013
  67. 00:50:12.092                             : en:00:50:12.092
  68. 01:07:00.767                             : en:01:07:00.767
  69. 01:20:15.644                             : en:01:20:15.644
复制代码





                                       
                                       

                                       
                                       
                                       




回复

使用道具 举报

蓝光币
253
发表于 2021-10-25 22:43:03 | 显示全部楼层

楼主,大恩不言谢了!蓝光电影网是最棒的!
回复 支持 反对

使用道具 举报

蓝光币
0
发表于 2021-10-26 16:05:26 | 显示全部楼层
一个巨大的不幸降临在游览水族馆的毫无戒心的人类身上,他们被迫为自己的生命而战,因为一个反常的科学事故导致水生生物变成了嗜血的丧尸。
回复 支持 反对

使用道具 举报

懒得打字嘛,点击右侧快捷回复 【右侧内容,后台自定义】
您需要登录后才可以回帖 登录 | 立即加入

本版积分规则

Archiver|小黑屋| 蓝光电影网 |网站地图

Copyright © 2021 Comsenz Inc. Powered by 蓝光电影网

蓝光电影网

本站内容由用户自主分享和转载自互联网,转载目的在于传递更多信息,并不代表本网赞同其观点和对其真实性负责。

如有侵权、违反国家法律政策行为,请联系我们,我们会第一时间及时清除和处理!

举报反馈邮箱:[email protected]

快速回复 返回顶部 返回列表