找回密码

蓝光电影网

查看: 571|回复: 5

[剧情] 东方 The.East.2020.720p.BluRay.x264.DTS-MT 8.44GB

[复制链接]
蓝光币
682
发表于 2021-10-25 13:35:01 | 显示全部楼层 |阅读模式


◎译  名 东方
◎片  名 De Oost
◎年  代 2020
◎产  地 荷兰
◎类  别 剧情 / 战争
◎语  言 荷兰语,印尼语
◎上映日期 2020-09-10(荷兰)
◎豆瓣评分 /10 from 0 users
◎豆瓣链接 https://movie.douban.com/subject/34919081/
◎片  长 137分钟
◎导  演 吉姆·泰华图 Jim Taihuttu
◎主  演 马尔万·肯扎里 Marwan Kenzari
       休·史密特 Huub Smit
       马汀·雷克梅尔 Martijn Lakemeier
       科恩·布里尔 Coen Bril
       乔纳斯·斯莫德斯 Jonas Smulders
       戴维·沃斯特斯 David Wristers
◎标  签 战争 | 荷兰 | 欧洲 | 暴力 | 外语片 | 行动 | 3M稀影基地论坛 | 3M稀影基地
◎简  介


  1940年印度尼西亚自力战争中一位荷兰典狱长的故事
  1. Video
  2. ID                                       : 1
  3. Format                                   : AVC
  4. Format/Info                              : Advanced Video Codec
  5. Format profile                           : [email protected]
  6. Format settings                          : CABAC / 9 Ref Frames
  7. Format settings, CABAC                   : Yes
  8. Format settings, Reference frames        : 9 frames
  9. Codec ID                                 : V_MPEG4/ISO/AVC
  10. Duration                                 : 2 h 21 min
  11. Bit rate                                 : 7 045 kb/s
  12. Width                                    : 1 280 pixels
  13. Height                                   : 694 pixels
  14. Display aspect ratio                     : 1.85:1
  15. Frame rate mode                          : Constant
  16. Frame rate                               : 23.976 (24000/1001/189150) FPS
  17. Color space                              : YUV
  18. Chroma subsampling                       : 4:2:0
  19. Bit depth                                : 8 bits
  20. Scan type                                : Progressive
  21. Bits/(Pixel*Frame)                       : 0.331
  22. Stream size                              : 6.95 GiB (82%)
  23. Writing library                          : x264 core 157 r2938 2b00a84 [email protected] Mod
  24. Encoding settings                        : cabac=1 / ref=9 / deblock=1:-3:-3 / analyse=0x3:0x133 / me=umh / subme=10 / psy=1 / psy_rd=1.05:0.00 / mixed_ref=1 / me_range=32 / chroma_me=1 / trellis=2 / 8x8dct=1 / cqm=0 / deadzone=21,11 / fast_pskip=0 / chroma_qp_offset=-2 / threads=12 / lookahead_threads=2 / sliced_threads=0 / nr=0 / decimate=0 / interlaced=0 / bluray_compat=0 / constrained_intra=0 / bframes=8 / b_pyramid=2 / b_adapt=2 / b_bias=0 / direct=3 / weightb=1 / open_gop=0 / weightp=2 / keyint=250 / keyint_min=24 / scenecut=40 / intra_refresh=0 / rc_lookahead=250 / rc=crf / mbtree=0 / crf=16.8 / qcomp=0.60 / qpmin=0 / qpmax=69 / qpstep=4 / vbv_maxrate=62500 / vbv_bufsize=78125 / crf_max=0.0 / nal_hrd=none / filler=0 / ip_ratio=1.30 / pb_ratio=1.20 / aq=3:0.80
  25. Language                                 : English
  26. Default                                  : Yes
  27. Forced                                   : No
  28. Color range                              : Limited
  29. Color primaries                          : BT.709
  30. Matrix coefficients                      : BT.709
  31. Audio
  32. ID                                       : 2
  33. Format                                   : DTS
  34. Format/Info                              : Digital Theater Systems
  35. Codec ID                                 : A_DTS
  36. Duration                                 : 2 h 21 min
  37. Bit rate mode                            : Constant
  38. Bit rate                                 : 1 509 kb/s
  39. Channel(s)                               : 6 channels
  40. Channel layout                           : C L R Ls Rs LFE
  41. Sampling rate                            : 48.0 kHz
  42. Frame rate                               : 93.750 FPS (512 SPF)
  43. Bit depth                                : 16 bits
  44. Compression mode                         : Lossy
  45. Stream size                              : 1.49 GiB (18%)
  46. Language                                 : English
  47. Default                                  : Yes
  48. Forced                                   : No
  49. Text
  50. ID                                       : 3
  51. Format                                   : UTF-8
  52. Codec ID                                 : S_TEXT/UTF8
  53. Codec ID/Info                            : UTF-8 Plain Text
  54. Duration                                 : 2 h 16 min
  55. Bit rate                                 : 39 b/s
  56. Count of elements                        : 1282
  57. Stream size                              : 39.9 KiB (0%)
  58. Title                                    : SRT
  59. Language                                 : English
  60. Default                                  : Yes
  61. Forced                                   : No
  62. Menu
  63. 00:00:00.000                             : en:Chapter 01
  64. 00:08:17.789                             : en:Chapter 02
  65. 00:15:37.937                             : en:Chapter 03
  66. 00:24:40.479                             : en:Chapter 04
  67. 00:34:05.043                             : en:Chapter 05
  68. 00:42:06.524                             : en:Chapter 06
  69. 00:51:34.091                             : en:Chapter 07
  70. 00:59:38.575                             : en:Chapter 08
  71. 01:09:33.169                             : en:Chapter 09
  72. 01:19:33.769                             : en:Chapter 10
  73. 01:30:24.419                             : en:Chapter 11
  74. 01:38:35.910                             : en:Chapter 12
  75. 01:48:33.507                             : en:Chapter 13
  76. 01:55:42.936                             : en:Chapter 14
  77. 02:05:02.495                             : en:Chapter 15
  78. 02:15:38.339                             : en:Chapter 16
复制代码







                                       
                                       

                                       
                                       
                                       




回复

使用道具 举报

蓝光币
30
发表于 2021-10-25 22:50:01 | 显示全部楼层

我看不错噢 谢谢楼主!蓝光电影网越来越好!
回复 支持 反对

使用道具 举报

蓝光币
30
发表于 2021-10-27 14:12:23 | 显示全部楼层

这个帖子不回对不起自己!我想我是一天也不能离开蓝光电影网。
回复 支持 反对

使用道具 举报

蓝光币
10
发表于 2021-10-30 09:51:12 | 显示全部楼层

感谢楼主的无私分享!要想蓝光电影网好 就靠你我他
回复 支持 反对

使用道具 举报

蓝光币
0
发表于 2021-10-30 15:56:54 | 显示全部楼层
楼主发贴辛苦了,谢谢楼主分享!我觉得蓝光电影网是注册对了!
回复 支持 反对

使用道具 举报

蓝光币
30
发表于 2021-11-2 11:30:34 | 显示全部楼层

我看不错噢 谢谢楼主!蓝光电影网越来越好!
回复 支持 反对

使用道具 举报

懒得打字嘛,点击右侧快捷回复 【右侧内容,后台自定义】
您需要登录后才可以回帖 登录 | 立即加入

本版积分规则

Archiver|小黑屋| 蓝光电影网 |网站地图

Copyright © 2021 Comsenz Inc. Powered by 蓝光电影网

蓝光电影网

本站内容由用户自主分享和转载自互联网,转载目的在于传递更多信息,并不代表本网赞同其观点和对其真实性负责。

如有侵权、违反国家法律政策行为,请联系我们,我们会第一时间及时清除和处理!

举报反馈邮箱:[email protected]

快速回复 返回顶部 返回列表