找回密码

蓝光电影网

查看: 578|回复: 3

[喜剧] 汪汪队立大功大电影/汪汪队立大功电影版 PAW.Patrol.The.Movie.2021.720p.BluRay.x264.DTS-MT 2.89GB

[复制链接]
蓝光币
733
发表于 2021-10-25 13:42:23 | 显示全部楼层 |阅读模式
[img][/img]

◎译  名 汪汪队立大功大电影/汪汪队立大功电影版(台)/狗狗巡查队
◎片  名 Paw Patrol: The Movie
◎年  代 2021
◎产  地 美国,加拿大
◎类  别 笑剧 / 动画 / 家庭 / 冒险
◎语  言 英语
◎上映日期 2021(中国大陆) / 2021-08-20(美国)
◎豆瓣评分 /10 from 0 users
◎豆瓣链接 https://movie.douban.com/subject/35045591/
◎片  长 88分钟
◎导  演 卡尔·布伦克尔 Cal Brunker
◎编  剧 鲍勃·巴伦 Bob Barlen / 卡尔·布伦克尔 Cal Brunker / 比利·弗罗利克 Billy Frolick
◎主  演 泰勒·派瑞 Tyler Perry
       罗恩·帕尔多 Ron Pardo
       威尔·布鲁斯宾 Will Brisbin
       金斯利·马歇尔 Kingsley Marshall
       基根·赫德利 Keegan Hedley
       伊恩·阿米蒂奇 Iain Armitage
       卡勒姆·肖尼克 Callum Shoniker
       谢尔·西蒙斯 Shayle Simons
       莉莉·巴特拉姆 Lilly Bartlam
       金·罗伯特 Kim Roberts
       保罗·布朗斯坦 Paul Braunstein
       马尔赛·马丁 Marsai Martin
       莫妮克·阿尔瓦雷斯 Monique Alvarez
       吉米·坎摩尔 Jimmy Kimmel
       杰米拉·罗斯 Jamillah Ross
       戴克斯·夏普德 Dax Shepard
       兰道尔·朴 Randall Park
       雅拉·沙希迪 Yara Shahidi
       乔希·罗伯特·汤普森 Josh Robert Thompson
       乔希·格雷厄姆 Josh Graham
       尼尔·克容 Neil Crone
       乔·平格 Joe Pingue
       金·卡戴珊 Kim Kardashian
       查理·加兰特 Charlie Gallant
       理查德·宾斯利 Richard Binsley
       雷欧·巴奈扎 Raoul Bhaneja
       莎拉·乔德利 Saara Chaudry
       Kevin Duhaney Kevin Duhaney
◎标  签 动画 | 2021 | 电影 | 童年 | 美国 | 美国动画 | 美国电影 | 笑剧
◎简  介


  汪汪队动身救济!邪恶的韩丁那成为了冒险湾的市长,而且预备对这座城市停止大举破坏。小男孩莱德和他勇敢的汪汪队小狗们必须打起十二分精神,预备驱逐全新的应战。与此同时,小狗阿奇不能不面临他在冒险湾复杂的曩昔。幸亏这时团队迎来了新的盟友,聪明的香肠犬贝贝。带着升级的兵器和装备,汪汪队已经预备好随时为拯救冒险湾的居民们而战!
  1. Video
  2. ID                                       : 1
  3. Format                                   : AVC
  4. Format/Info                              : Advanced Video Codec
  5. Format profile                           : [email protected]
  6. Format settings                          : CABAC / 12 Ref Frames
  7. Format settings, CABAC                   : Yes
  8. Format settings, Reference frames        : 12 frames
  9. Codec ID                                 : V_MPEG4/ISO/AVC
  10. Duration                                 : 1 h 26 min
  11. Bit rate                                 : 3 302 kb/s
  12. Width                                    : 1 280 pixels
  13. Height                                   : 534 pixels
  14. Display aspect ratio                     : 2.40:1
  15. Frame rate mode                          : Constant
  16. Frame rate                               : 23.976 (24000/1001/189150) FPS
  17. Color space                              : YUV
  18. Chroma subsampling                       : 4:2:0
  19. Bit depth                                : 8 bits
  20. Scan type                                : Progressive
  21. Bits/(Pixel*Frame)                       : 0.201
  22. Stream size                              : 1.98 GiB (69%)
  23. Writing library                          : x264 core 157 r2938 2b00a84 [email protected] Mod
  24. Encoding settings                        : cabac=1 / ref=12 / deblock=1:-3:-3 / analyse=0x3:0x133 / me=umh / subme=10 / psy=1 / psy_rd=1.05:0.00 / mixed_ref=1 / me_range=32 / chroma_me=1 / trellis=2 / 8x8dct=1 / cqm=0 / deadzone=21,11 / fast_pskip=0 / chroma_qp_offset=-2 / threads=12 / lookahead_threads=2 / sliced_threads=0 / nr=0 / decimate=0 / interlaced=0 / bluray_compat=0 / constrained_intra=0 / bframes=8 / b_pyramid=2 / b_adapt=2 / b_bias=0 / direct=3 / weightb=1 / open_gop=0 / weightp=2 / keyint=250 / keyint_min=24 / scenecut=40 / intra_refresh=0 / rc_lookahead=250 / rc=crf / mbtree=0 / crf=16.8 / qcomp=0.60 / qpmin=0 / qpmax=69 / qpstep=4 / vbv_maxrate=62500 / vbv_bufsize=78125 / crf_max=0.0 / nal_hrd=none / filler=0 / ip_ratio=1.30 / pb_ratio=1.20 / aq=3:0.80
  25. Language                                 : English
  26. Default                                  : Yes
  27. Forced                                   : No
  28. Color range                              : Limited
  29. Color primaries                          : BT.709
  30. Matrix coefficients                      : BT.709
  31. Audio
  32. ID                                       : 2
  33. Format                                   : DTS
  34. Format/Info                              : Digital Theater Systems
  35. Codec ID                                 : A_DTS
  36. Duration                                 : 1 h 26 min
  37. Bit rate mode                            : Constant
  38. Bit rate                                 : 1 509 kb/s
  39. Channel(s)                               : 6 channels
  40. Channel layout                           : C L R Ls Rs LFE
  41. Sampling rate                            : 48.0 kHz
  42. Frame rate                               : 93.750 FPS (512 SPF)
  43. Bit depth                                : 24 bits
  44. Compression mode                         : Lossy
  45. Stream size                              : 928 MiB (31%)
  46. Language                                 : English
  47. Default                                  : Yes
  48. Forced                                   : No
  49. Text
  50. ID                                       : 3
  51. Format                                   : UTF-8
  52. Codec ID                                 : S_TEXT/UTF8
  53. Codec ID/Info                            : UTF-8 Plain Text
  54. Duration                                 : 1 h 16 min
  55. Bit rate                                 : 56 b/s
  56. Count of elements                        : 1048
  57. Stream size                              : 31.8 KiB (0%)
  58. Title                                    : SRT
  59. Language                                 : English
  60. Default                                  : Yes
  61. Forced                                   : No
  62. Menu
  63. 00:00:00.000                             : en:Chapter 01
  64. 00:06:45.488                             : en:Chapter 02
  65. 00:13:25.304                             : en:Chapter 03
  66. 00:20:28.269                             : en:Chapter 04
  67. 00:26:21.079                             : en:Chapter 05
  68. 00:32:57.309                             : en:Chapter 06
  69. 00:37:40.633                             : en:Chapter 07
  70. 00:44:39.427                             : en:Chapter 08
  71. 00:49:59.663                             : en:Chapter 09
  72. 00:55:14.937                             : en:Chapter 10
  73. 01:02:39.214                             : en:Chapter 11
  74. 01:11:12.560                             : en:Chapter 12
  75. 01:17:17.925                             : en:Chapter 13
复制代码







                                       
                                       

                                       
                                       
                                       




回复

使用道具 举报

蓝光币
186
发表于 2021-10-26 10:54:39 | 显示全部楼层
楼主发贴辛苦了,谢谢楼主分享!我觉得蓝光电影网是注册对了!
回复 支持 反对

使用道具 举报

蓝光币
29
发表于 2021-10-26 15:36:28 | 显示全部楼层

楼主太厉害了!楼主,电影应该很好看我觉得蓝光电影网真是个好地方!
回复 支持 反对

使用道具 举报

蓝光币
30
发表于 2021-10-27 14:10:41 | 显示全部楼层

楼主太厉害了!楼主,电影应该很好看我觉得蓝光电影网真是个好地方!
回复 支持 反对

使用道具 举报

懒得打字嘛,点击右侧快捷回复 【右侧内容,后台自定义】
您需要登录后才可以回帖 登录 | 立即加入

本版积分规则

Archiver|小黑屋| 蓝光电影网 |网站地图

Copyright © 2021 Comsenz Inc. Powered by 蓝光电影网

蓝光电影网

本站内容由用户自主分享和转载自互联网,转载目的在于传递更多信息,并不代表本网赞同其观点和对其真实性负责。

如有侵权、违反国家法律政策行为,请联系我们,我们会第一时间及时清除和处理!

举报反馈邮箱:[email protected]

快速回复 返回顶部 返回列表