找回密码

蓝光电影网

查看: 567|回复: 4

[REMUX.HEVC] 人之怒 Wrath.of.Man.2021.2160p.BluRay.REMUX.HEVC.DTS-HD.MA.7.1-FGT 72.22GB

[复制链接]
蓝光币
730
发表于 2021-10-25 13:58:54 | 显示全部楼层 |阅读模式


◎译  名 人之怒/Cash Truck/玩命钞劫(台)/运钞车
◎片  名 Wrath of Man
◎年  代 2021
◎产  地 美国,英国
◎类  别 行动 / 犯罪
◎语  言 英语
◎上映日期 2021-04-22(俄罗斯) / 2021-05-07(美国) / 2021-05-10(中国大陆)
◎豆瓣评分 6.7/10 from 126634 users
◎豆瓣链接 https://movie.douban.com/subject/27046740/
◎片  长 118分钟
◎导  演 盖·里奇 Guy Ritchie
◎编  剧 尼古拉斯·布赫里夫 Nicolas Boukhrief / 艾瑞克·贝斯纳 éric Besnard / 盖·里奇 Guy Ritchie / 马恩·戴维斯 Marn Davies / 伊凡·阿特金森 Ivan Atkinson
◎主  演 杰森·斯坦森 Jason Statham
       霍特·麦克卡兰尼 Holt McCallany
       罗奇·威廉姆斯 Rocci Williams
       乔什·哈奈特 Josh Hartnett
       杰弗里·多诺万 Jeffrey Donovan
       斯科特·伊斯特伍德 Scott Eastwood
       安迪·加西亚 Andy Garcia
       道比·欧帕瑞 Deobia Oparei
       拉兹·阿隆索 Laz Alonso
       劳尔·卡斯提洛 Raúl Castillo
       克里斯·雷利 Chris Reilly
       埃迪·马森 Eddie Marsan
       尼芙·阿尔格 Niamh Algar
       塔格·墨菲 Tadhg Murphy
       马克·阿诺德 Mark Arnold
       杰拉尔德·泰勒 Gerald Tyler
       亚历克斯·费恩斯 Alex Ferns
       乔什·柯德雷 Josh Cowdery
       杰森·王 Jason Wong
       罗伯·德兰尼 Rob Delaney
       伊莱·布朗 Eli Brown
       凯瑞·莎勒 Kerry Shale
       卡梅伦·杰克 Cameron Jack
       达雷尔·席尔瓦 Darrell D'Silva
       巴布斯·奥卢桑莫昆 Babs Olusanmokun
       多米尼克·托马斯 Dominique Thomas
       琳·勒内 Lyne Renee
       蕾贝卡·卡尔德 Rebecca Calder
       伊芙·麦凯林 Eve Macklin
       詹姆斯·沃伦 James Warren
       波兹·马龙 Post Malone
       史蒂威·戴维斯 Stevee Davies
       蒙塔娜·曼宁 Montana Manning
       安东尼·莫利纳利 Anthony Molinari
◎标  签 犯罪 | 行动 | 美国 | 2021 | 剧情 | 悬疑 | 英国 | 黑色诙谐
◎简  介


  在一次全部武装的运钞车劫案中,梅斯师长(杰森·斯坦森 饰)的儿子作为案发目击者被劫匪杀戮。拊膺切齿的梅斯为报丧子之仇,化身H卧底成为运钞车安保,试图找出杀戮他儿子的劫匪以及与劫匪黑暗勾结的安保公司内鬼。
  1. Video
  2. ID                                       : 1
  3. ID in the original source medium         : 4113 (0x1011)
  4. Format                                   : HEVC
  5. Format/Info                              : High Efficiency Video Coding
  6. Format profile                           : Main [email protected]@High
  7. HDR format                               : SMPTE ST 2086, HDR10 compatible
  8. Codec ID                                 : V_MPEGH/ISO/HEVC
  9. Duration                                 : 1 h 58 min
  10. Bit rate                                 : 76.0 Mb/s
  11. Width                                    : 3 840 pixels
  12. Height                                   : 2 160 pixels
  13. Display aspect ratio                     : 16:9
  14. Frame rate mode                          : Constant
  15. Frame rate                               : 24.000 FPS
  16. Color space                              : YUV
  17. Chroma subsampling                       : 4:2:0 (Type 2)
  18. Bit depth                                : 10 bits
  19. Bits/(Pixel*Frame)                       : 0.382
  20. Stream size                              : 62.9 GiB (87%)
  21. Writing library                          : ATEME Titan File 3.9.4 (4.9.4.12)      
  22. Language                                 : English
  23. Default                                  : No
  24. Forced                                   : No
  25. Color range                              : Limited
  26. Color primaries                          : BT.2020
  27. Transfer characteristics                 : PQ
  28. Matrix coefficients                      : BT.2020 non-constant
  29. Mastering display color primaries        : BT.2020
  30. Mastering display luminance              : min: 0.0050 cd/m2, max: 1000 cd/m2
  31. Maximum Content Light Level              : 832 cd/m2
  32. Maximum Frame-Average Light Level        : 166 cd/m2
  33. Original source medium                   : Blu-ray
  34. Audio #1
  35. ID                                       : 2
  36. ID in the original source medium         : 4353 (0x1101)
  37. Format                                   : DTS XLL
  38. Format/Info                              : Digital Theater Systems
  39. Commercial name                          : DTS-HD Master Audio
  40. Codec ID                                 : A_DTS
  41. Duration                                 : 1 h 58 min
  42. Bit rate mode                            : Variable
  43. Bit rate                                 : 4 934 kb/s
  44. Channel(s)                               : 8 channels
  45. Channel layout                           : C L R LFE Lb Rb Lss Rss
  46. Sampling rate                            : 48.0 kHz
  47. Frame rate                               : 93.750 FPS (512 SPF)
  48. Bit depth                                : 24 bits
  49. Compression mode                         : Lossless
  50. Stream size                              : 4.08 GiB (6%)
  51. Title                                    : DTS-HD MA 7.1
  52. Language                                 : English
  53. Default                                  : Yes
  54. Forced                                   : No
  55. Original source medium                   : Blu-ray
  56. Audio #2
  57. ID                                       : 3
  58. Format                                   : AC-3
  59. Format/Info                              : Audio Coding 3
  60. Commercial name                          : Dolby Digital
  61. Codec ID                                 : A_AC3
  62. Duration                                 : 1 h 58 min
  63. Bit rate mode                            : Constant
  64. Bit rate                                 : 640 kb/s
  65. Channel(s)                               : 6 channels
  66. Channel layout                           : L R C LFE Ls Rs
  67. Sampling rate                            : 48.0 kHz
  68. Frame rate                               : 31.250 FPS (1536 SPF)
  69. Compression mode                         : Lossy
  70. Stream size                              : 542 MiB (1%)
  71. Title                                    : DD 5.1
  72. Language                                 : English
  73. Service kind                             : Complete Main
  74. Default                                  : No
  75. Forced                                   : No
  76. Audio #3
  77. ID                                       : 4
  78. ID in the original source medium         : 4352 (0x1100)
  79. Format                                   : DTS XLL
  80. Format/Info                              : Digital Theater Systems
  81. Commercial name                          : DTS-HD Master Audio
  82. Codec ID                                 : A_DTS
  83. Duration                                 : 1 h 58 min
  84. Bit rate mode                            : Variable
  85. Bit rate                                 : 4 959 kb/s
  86. Channel(s)                               : 8 channels
  87. Channel layout                           : C L R LFE Lb Rb Lss Rss
  88. Sampling rate                            : 48.0 kHz
  89. Frame rate                               : 93.750 FPS (512 SPF)
  90. Bit depth                                : 24 bits
  91. Compression mode                         : Lossless
  92. Stream size                              : 4.10 GiB (6%)
  93. Title                                    : DTS-HD MA 7.1
  94. Language                                 : French
  95. Default                                  : No
  96. Forced                                   : No
  97. Original source medium                   : Blu-ray
  98. Audio #4
  99. ID                                       : 5
  100. ID in the original source medium         : 4354 (0x1102)
  101. Format                                   : DTS
  102. Format/Info                              : Digital Theater Systems
  103. Codec ID                                 : A_DTS
  104. Duration                                 : 1 h 58 min
  105. Bit rate mode                            : Constant
  106. Bit rate                                 : 768 kb/s
  107. Channel(s)                               : 2 channels
  108. Channel layout                           : Lt Rt
  109. Sampling rate                            : 48.0 kHz
  110. Frame rate                               : 93.750 FPS (512 SPF)
  111. Bit depth                                : 16 bits
  112. Compression mode                         : Lossy
  113. Stream size                              : 650 MiB (1%)
  114. Title                                    : DTS 2.0
  115. Language                                 : French
  116. Default                                  : No
  117. Forced                                   : No
  118. Original source medium                   : Blu-ray
  119. Text #1
  120. ID                                       : 6
  121. Format                                   : UTF-8
  122. Codec ID                                 : S_TEXT/UTF8
  123. Codec ID/Info                            : UTF-8 Plain Text
  124. Duration                                 : 1 h 50 min
  125. Bit rate                                 : 55 b/s
  126. Count of elements                        : 1402
  127. Stream size                              : 45.3 KiB (0%)
  128. Title                                    : SRT
  129. Language                                 : English
  130. Default                                  : Yes
  131. Forced                                   : No
  132. Text #2
  133. ID                                       : 7
  134. ID in the original source medium         : 4768 (0x12A0)
  135. Format                                   : PGS
  136. Muxing mode                              : zlib
  137. Codec ID                                 : S_HDMV/PGS
  138. Codec ID/Info                            : Picture based subtitle format used on BDs/HD-DVDs
  139. Duration                                 : 51 min 29 s
  140. Bit rate                                 : 222 b/s
  141. Count of elements                        : 14
  142. Stream size                              : 84.0 KiB (0%)
  143. Title                                    : FORCED
  144. Language                                 : French
  145. Default                                  : No
  146. Forced                                   : No
  147. Original source medium                   : Blu-ray
  148. Text #3
  149. ID                                       : 8
  150. ID in the original source medium         : 4769 (0x12A1)
  151. Format                                   : PGS
  152. Muxing mode                              : zlib
  153. Codec ID                                 : S_HDMV/PGS
  154. Codec ID/Info                            : Picture based subtitle format used on BDs/HD-DVDs
  155. Duration                                 : 1 h 57 min
  156. Bit rate                                 : 22.7 kb/s
  157. Count of elements                        : 2982
  158. Stream size                              : 19.1 MiB (0%)
  159. Language                                 : French
  160. Default                                  : No
  161. Forced                                   : No
  162. Original source medium                   : Blu-ray
  163. Text #4
  164. ID                                       : 9
  165. ID in the original source medium         : 4770 (0x12A2)
  166. Format                                   : PGS
  167. Muxing mode                              : zlib
  168. Codec ID                                 : S_HDMV/PGS
  169. Codec ID/Info                            : Picture based subtitle format used on BDs/HD-DVDs
  170. Duration                                 : 1 h 58 min
  171. Bit rate                                 : 29.6 kb/s
  172. Count of elements                        : 4104
  173. Stream size                              : 25.0 MiB (0%)
  174. Title                                    : SDH
  175. Language                                 : French
  176. Default                                  : No
  177. Forced                                   : No
  178. Original source medium                   : Blu-ray
  179. Menu
  180. 00:00:00.000                             : en:Chapter 01
  181. 00:05:38.750                             : en:Chapter 02
  182. 00:12:51.083                             : en:Chapter 03
  183. 00:19:34.333                             : en:Chapter 04
  184. 00:25:38.541                             : en:Chapter 05
  185. 00:31:49.208                             : en:Chapter 06
  186. 00:38:14.916                             : en:Chapter 07
  187. 00:47:14.833                             : en:Chapter 08
  188. 01:02:21.208                             : en:Chapter 09
  189. 01:10:15.750                             : en:Chapter 10
  190. 01:17:16.291                             : en:Chapter 11
  191. 01:24:52.333                             : en:Chapter 12
  192. 01:31:42.083                             : en:Chapter 13
  193. 01:40:03.416                             : en:Chapter 14
  194. 01:46:51.333                             : en:Chapter 15
  195. 01:52:40.625                             : en:Chapter 16
复制代码




                                       
                                       

                                       
                                       
                                       




回复

使用道具 举报

蓝光币
1771
发表于 2021-10-25 14:33:42 | 显示全部楼层

楼主太厉害了!楼主,电影应该很好看我觉得蓝光电影网真是个好地方!
回复 支持 反对

使用道具 举报

蓝光币
1575
发表于 2021-10-25 14:51:15 | 显示全部楼层
太好啦&萬分感謝版主的無私發佈分享%
回复 支持 反对

使用道具 举报

蓝光币
119
发表于 2021-10-25 14:57:58 | 显示全部楼层

这东西我收了!谢谢楼主!蓝光电影网真好!
回复 支持 反对

使用道具 举报

蓝光币
349
发表于 2021-10-26 21:18:58 | 显示全部楼层

楼主太厉害了!楼主,电影应该很好看我觉得蓝光电影网真是个好地方!
回复 支持 反对

使用道具 举报

懒得打字嘛,点击右侧快捷回复 【右侧内容,后台自定义】
您需要登录后才可以回帖 登录 | 立即加入

本版积分规则

Archiver|小黑屋| 蓝光电影网 |网站地图

Copyright © 2021 Comsenz Inc. Powered by 蓝光电影网

蓝光电影网

本站内容由用户自主分享和转载自互联网,转载目的在于传递更多信息,并不代表本网赞同其观点和对其真实性负责。

如有侵权、违反国家法律政策行为,请联系我们,我们会第一时间及时清除和处理!

举报反馈邮箱:[email protected]

快速回复 返回顶部 返回列表