找回密码

蓝光电影网

查看: 393|回复: 0

[惊悚] 深宅/深水妖宅 The.Deep.House.2021.1080p.WEBRip.DD5.1.x264-NOGRP 3.61GB

[复制链接]
蓝光币
682
发表于 2021-10-25 16:31:53 | 显示全部楼层 |阅读模式


◎译  名 深宅/深水妖宅
◎片  名 The Deep House
◎年  代 2021
◎产  地 法国
◎类  别 惊悚 / 可骇
◎语  言 英语
◎上映日期 2021-06-30(法国)
◎豆瓣评分 /10 from 0 users
◎豆瓣链接 https://movie.douban.com/subject/34960130/
◎片  长 85分钟
◎导  演 亚历山大·布斯蒂罗 Alexandre Bustillo / 朱利安·莫利 Julien Maury
◎编  剧 亚历山大·布斯蒂罗 Alexandre Bustillo / 朱利安·莫利 Julien Maury
◎主  演 詹姆斯·贾格尔 James Jagger
       卡蜜尔·罗 Camille Rowe
◎标  签 可骇 | 惊悚 | 可骇电影 | 法国 | 2021 | 法国电影 | 未上映 | 待看
◎简  介


  一对年轻佳耦经常拍摄、上传自己探险水下衡宇的视频。此次二人前往一个偏僻的湖泊,意外发现了深水中一幢希奇的烧毁衡宇,而他们的到来叫醒了深宅中的黑暗存在。
  1. Video
  2. ID                                       : 1
  3. Format                                   : AVC
  4. Format/Info                              : Advanced Video Codec
  5. Format profile                           : [email protected]
  6. Format settings                          : CABAC / 2 Ref Frames
  7. Format settings, CABAC                   : Yes
  8. Format settings, Reference frames        : 2 frames
  9. Codec ID                                 : V_MPEG4/ISO/AVC
  10. Duration                                 : 1 h 21 min
  11. Bit rate                                 : 5 944 kb/s
  12. Width                                    : 1 920 pixels
  13. Height                                   : 1 080 pixels
  14. Display aspect ratio                     : 16:9
  15. Frame rate mode                          : Constant
  16. Frame rate                               : 25.000 FPS
  17. Color space                              : YUV
  18. Chroma subsampling                       : 4:2:0
  19. Bit depth                                : 8 bits
  20. Scan type                                : Progressive
  21. Bits/(Pixel*Frame)                       : 0.115
  22. Stream size                              : 3.39 GiB (94%)
  23. Writing library                          : x264 core 155 r2901 7d0ff22
  24. Language                                 : English
  25. Default                                  : Yes
  26. Forced                                   : No
  27. Color range                              : Limited
  28. Color primaries                          : BT.709
  29. Transfer characteristics                 : BT.709
  30. Matrix coefficients                      : BT.709
  31. Audio
  32. ID                                       : 2
  33. Format                                   : AC-3
  34. Format/Info                              : Audio Coding 3
  35. Commercial name                          : Dolby Digital
  36. Codec ID                                 : A_AC3
  37. Duration                                 : 1 h 21 min
  38. Bit rate mode                            : Constant
  39. Bit rate                                 : 384 kb/s
  40. Channel(s)                               : 6 channels
  41. Channel layout                           : L R C LFE Ls Rs
  42. Sampling rate                            : 48.0 kHz
  43. Frame rate                               : 31.250 FPS (1536 SPF)
  44. Compression mode                         : Lossy
  45. Stream size                              : 225 MiB (6%)
  46. Language                                 : English
  47. Service kind                             : Complete Main
  48. Default                                  : Yes
  49. Forced                                   : No
  50. Text
  51. ID                                       : 3
  52. Format                                   : UTF-8
  53. Codec ID                                 : S_TEXT/UTF8
  54. Codec ID/Info                            : UTF-8 Plain Text
  55. Duration                                 : 1 h 11 min
  56. Bit rate                                 : 36 b/s
  57. Count of elements                        : 693
  58. Stream size                              : 18.9 KiB (0%)
  59. Language                                 : English
  60. Default                                  : Yes
  61. Forced                                   : No
复制代码







                                       
                                       

                                       
                                       
                                       




回复

使用道具 举报

懒得打字嘛,点击右侧快捷回复 【右侧内容,后台自定义】
您需要登录后才可以回帖 登录 | 立即加入

本版积分规则

Archiver|小黑屋| 蓝光电影网 |网站地图

Copyright © 2021 Comsenz Inc. Powered by 蓝光电影网

蓝光电影网

本站内容由用户自主分享和转载自互联网,转载目的在于传递更多信息,并不代表本网赞同其观点和对其真实性负责。

如有侵权、违反国家法律政策行为,请联系我们,我们会第一时间及时清除和处理!

举报反馈邮箱:[email protected]

快速回复 返回顶部 返回列表