找回密码

蓝光电影网

查看: 144|回复: 0

[喜剧] 浪潮武士/忍者大追杀 Surf.Ninjas.1993.1080p.AMZN.WEBRip.DDP2.0.x264-QOQ 6.00GB

[复制链接]
蓝光币
682
发表于 2021-10-25 18:21:06 | 显示全部楼层 |阅读模式


◎译  名 浪潮军人/忍者大追杀
◎片  名 Surf Ninjas
◎年  代 1993
◎产  地 美国
◎类  别 笑剧 / 家庭 / 冒险
◎语  言 英语
◎上映日期 1993-08-12
◎豆瓣评分 5.1/10 from 62 users
◎豆瓣链接 https://movie.douban.com/subject/2277776/
◎片  长 UK: 87 分钟
◎导  演 尼尔·伊斯雷尔 Neal Israel
◎编  剧 丹·戈登 Dan Gordon
◎主  演 Ernie Reyes Sr. Ernie Reyes Sr.
       皮特·安蒂克 Pete Antico
       基内·扬 Keone Young
       菲利普·丹 Philip Tan
       Robert Terry Lee Robert Terry Lee
       朱英 Young Jue
       Rachel Kolar Rachel Kolar
       胡凯莉 Kelly Hu
       厄尼·雷耶斯 Ernie Reyes Jr.
       尼尔·伊斯雷尔 Neal Israel
       罗伯·施奈德 Rob Schneider
       詹姆斯·瓦莱利 James Vallely
       莱斯利·尼尔森 Leslie Nielsen
       托恩·洛茨 Tone Loc
       Tad Horino Tad Horino
       纳丹·晶 Nathan Jung
       约翰·卡伦 John Karlen
       Desi Singh Desi Singh
◎标  签 笑剧 | 美国电影 | 美国 | 行动 | 囧片 | 六套 | 奇异 | 童年回忆
◎简  介


  强尼和阿达兄弟是少年冲浪高手,好友矮个儿常跟他们一路打混、游手好闲,当强尼16岁生日快到时,一群由恶名远播的齐上校派来的东方忍者攻击强尼一家,还绑走他们的爸爸,但强尼和阿达在武功高强的沙奇庇护下平安脱险,奥秘的独眼龙沙奇向他们现两兄弟流露,本来他俩是远在东方的火龙王子,现在必须回去拯救曼齐上校独裁统治杀戮的老百姓。身为火龙岛王位承人,强尼天生被赋于高强的忍术和武功,而阿达靠着一台掌心电玩机则具有预知未来的才能,在沙奇机智的带领下,加上矮个儿的插科打混,他们一伙人声势赫赫杀到火龙岛……
  1. Video
  2. ID                                       : 1
  3. Format                                   : AVC
  4. Format/Info                              : Advanced Video Codec
  5. Format profile                           : [email protected]
  6. Format settings                          : CABAC / 4 Ref Frames
  7. Format settings, CABAC                   : Yes
  8. Format settings, Reference frames        : 4 frames
  9. Codec ID                                 : V_MPEG4/ISO/AVC
  10. Duration                                 : 1 h 26 min
  11. Bit rate mode                            : Constant
  12. Bit rate                                 : 10 000 kb/s
  13. Width                                    : 1 920 pixels
  14. Height                                   : 1 040 pixels
  15. Display aspect ratio                     : 1.85:1
  16. Frame rate mode                          : Constant
  17. Frame rate                               : 23.976 (24000/1001/189150) FPS
  18. Color space                              : YUV
  19. Chroma subsampling                       : 4:2:0
  20. Bit depth                                : 8 bits
  21. Scan type                                : Progressive
  22. Bits/(Pixel*Frame)                       : 0.209
  23. Stream size                              : 5.86 GiB (98%)
  24. Default                                  : Yes
  25. Forced                                   : No
  26. Color range                              : Limited
  27. Color primaries                          : BT.709
  28. Transfer characteristics                 : BT.709
  29. Matrix coefficients                      : BT.709
  30. Audio
  31. ID                                       : 2
  32. Format                                   : E-AC-3
  33. Format/Info                              : Enhanced AC-3
  34. Commercial name                          : Dolby Digital Plus
  35. Codec ID                                 : A_EAC3
  36. Duration                                 : 1 h 26 min
  37. Bit rate mode                            : Constant
  38. Bit rate                                 : 224 kb/s
  39. Channel(s)                               : 2 channels
  40. Channel layout                           : L R
  41. Sampling rate                            : 48.0 kHz
  42. Frame rate                               : 31.250 FPS (1536 SPF)
  43. Compression mode                         : Lossy
  44. Stream size                              : 139 MiB (2%)
  45. Language                                 : English
  46. Service kind                             : Complete Main
  47. Default                                  : Yes
  48. Forced                                   : No
  49. Text #1
  50. ID                                       : 3
  51. Format                                   : UTF-8
  52. Codec ID                                 : S_TEXT/UTF8
  53. Codec ID/Info                            : UTF-8 Plain Text
  54. Duration                                 : 1 h 25 min
  55. Bit rate                                 : 56 b/s
  56. Count of elements                        : 1494
  57. Stream size                              : 35.8 KiB (0%)
  58. Language                                 : English
  59. Default                                  : No
  60. Forced                                   : No
  61. Text #2
  62. ID                                       : 4
  63. Format                                   : UTF-8
  64. Codec ID                                 : S_TEXT/UTF8
  65. Codec ID/Info                            : UTF-8 Plain Text
  66. Duration                                 : 1 h 25 min
  67. Bit rate                                 : 58 b/s
  68. Count of elements                        : 1557
  69. Stream size                              : 36.8 KiB (0%)
  70. Title                                    : SDH
  71. Language                                 : English
  72. Default                                  : No
  73. Forced                                   : No
复制代码






                                       
                                       

                                       
                                       
                                       




回复

使用道具 举报

懒得打字嘛,点击右侧快捷回复 【右侧内容,后台自定义】
您需要登录后才可以回帖 登录 | 立即加入

本版积分规则

Archiver|小黑屋| 蓝光电影网 |网站地图

Copyright © 2021 Comsenz Inc. Powered by 蓝光电影网

蓝光电影网

本站内容由用户自主分享和转载自互联网,转载目的在于传递更多信息,并不代表本网赞同其观点和对其真实性负责。

如有侵权、违反国家法律政策行为,请联系我们,我们会第一时间及时清除和处理!

举报反馈邮箱:[email protected]

快速回复 返回顶部 返回列表