找回密码

蓝光电影网

查看: 344|回复: 0

[REMUX.HEVC] 过关斩将/威龙猛将 The.Running.Man.1987.2160p.BluRay.REMUX.HEVC.DTS-HD.MA.7.1-FGT 60.49GB

[复制链接]
蓝光币
682
发表于 2021-10-25 22:15:41 | 显示全部楼层 |阅读模式


◎译  名 过关斩将/威龙猛将/跑步者/逃窜的人/魔鬼阿诺
◎片  名 The Running Man
◎年  代 1987
◎产  地 美国
◎类  别 行动 / 科幻 / 惊悚
◎语  言 英语
◎上映日期 1987-11-13
◎豆瓣评分 6.8/10 from 4979 users
◎豆瓣链接 https://movie.douban.com/subject/1292626/
◎片  长 101 分钟
◎导  演 保罗·迈克尔·格拉泽 Paul Michael Glaser
◎编  剧 斯蒂芬·金 Stephen King / 斯蒂芬·E.德·索萨 Steven E. de Souza
◎主  演 阿诺·施瓦辛格 Arnold Schwarzenegger
       玛利亚·康柯塔·阿隆索 Maria Conchita Alonso
       杰西·温图拉 Jesse Ventura
       Anthony Pena Anthony Pena
       爱德华·邦克 Edward Bunker
       史文-欧尔·托尔森 Sven-Ole Thorsen
       戴·扬 Dey Young
       罗德格尔·邦帕斯 Rodger Bumpass
       琳恩·玛丽·斯图尔特 Lynne Marie Stewart
       小托马斯·罗萨莱斯 Thomas Rosales Jr.
       罗杰·科恩 Roger Kern
       弗兰科·哥伦布 Franco Columbu
       博伊德·肯斯特纳 Boyd Kestner
       梅利莎·赫利 Melissa Hurley
       卡德罗莎·奥娜·卡罗尔
       理查德·道森 Richard Dawson
       米克·弗利特伍德 Mick Fleetwood
       Billy D. Lucas Billy D. Lucas
       林·沙烨 Lin Shaye
       乔治·P·威尔伯 George P. Wilbur
       柯特·富勒 Kurt Fuller
       吉姆·布朗 Jim Brown
       Dweezil Zappa Dweezil Zappa
       亚非特·科托 Yaphet Kotto
       Erland van Lidth Erland van Lidth
       田中通教授 Professor Toru Tanaka
       Karen Leigh Hopkins Karen Leigh Hopkins
◎标  签 行动 | 科幻 | 美国 | 施瓦辛格 | 暴力 | 1987 | 阿诺德·施瓦辛格 | 美国电影
◎简  介


  该片延续了施瓦辛格一向的豪杰气概。在2019年,美国已经成为了一个独裁国家,在这里,不允许有分歧的声音出现。本(阿诺?施瓦辛格 Arnold Schwarzenegger 饰)是一位差人,因对政府的号令不满,拒不履行号令而被判有罪遭到拘系。
  
  现在只要一个机遇能让本重获自在,那就是加入电视台的“过关斩将”节目并终极得胜。这个节目肆意曲解究竟,误导观众,节目里的有识之士被扭曲形象,遭到杀戮。本含辛茹苦从电视台逃出来后,结合了一班正义之士,预备杀回电视台拆穿这个节目标圈套!
  1. Video
  2. ID                                       : 1
  3. ID in the original source medium         : 4113 (0x1011)
  4. Format                                   : HEVC
  5. Format/Info                              : High Efficiency Video Coding
  6. Format profile                           : Main [email protected]@High
  7. HDR format                               : Dolby Vision, Version 1.0, dvhe.07.06, BL+EL+RPU, Blu-ray compatible / SMPTE ST 2086, HDR10 compatible
  8. Codec ID                                 : V_MPEGH/ISO/HEVC
  9. Duration                                 : 1 h 40 min
  10. Bit rate                                 : 73.2 Mb/s
  11. Width                                    : 3 840 pixels
  12. Height                                   : 2 160 pixels
  13. Display aspect ratio                     : 16:9
  14. Frame rate mode                          : Constant
  15. Frame rate                               : 23.976 (24000/1001/189150) FPS
  16. Color space                              : YUV
  17. Chroma subsampling                       : 4:2:0 (Type 2)
  18. Bit depth                                : 10 bits
  19. Bits/(Pixel*Frame)                       : 0.368
  20. Stream size                              : 51.5 GiB (85%)
  21. Language                                 : English
  22. Default                                  : No
  23. Forced                                   : No
  24. Color range                              : Limited
  25. Color primaries                          : BT.2020
  26. Transfer characteristics                 : PQ
  27. Matrix coefficients                      : BT.2020 non-constant
  28. Mastering display color primaries        : Display P3
  29. Mastering display luminance              : min: 0.0050 cd/m2, max: 4000 cd/m2
  30. Maximum Content Light Level              : 3966 cd/m2
  31. Maximum Frame-Average Light Level        : 523 cd/m2
  32. Original source medium                   : Blu-ray
  33. Audio #1
  34. ID                                       : 2
  35. ID in the original source medium         : 4355 (0x1103)
  36. Format                                   : DTS ES XLL
  37. Format/Info                              : Digital Theater Systems
  38. Commercial name                          : DTS-HD Master Audio
  39. Codec ID                                 : A_DTS
  40. Duration                                 : 1 h 40 min
  41. Bit rate mode                            : Variable
  42. Bit rate                                 : 5 148 kb/s
  43. Channel(s)                               : 8 channels
  44. Channel layout                           : C L R Ls Rs LFE Lb Rb
  45. Sampling rate                            : 48.0 kHz
  46. Frame rate                               : 93.750 FPS (512 SPF)
  47. Bit depth                                : 24 bits
  48. Compression mode                         : Lossless
  49. Stream size                              : 3.63 GiB (6%)
  50. Title                                    : DTS-HD MA 7.1
  51. Language                                 : English
  52. Default                                  : Yes
  53. Forced                                   : No
  54. Original source medium                   : Blu-ray
  55. Audio #2
  56. ID                                       : 3
  57. Format                                   : AC-3
  58. Format/Info                              : Audio Coding 3
  59. Commercial name                          : Dolby Digital
  60. Codec ID                                 : A_AC3
  61. Duration                                 : 1 h 40 min
  62. Bit rate mode                            : Constant
  63. Bit rate                                 : 640 kb/s
  64. Channel(s)                               : 6 channels
  65. Channel layout                           : L R C LFE Ls Rs
  66. Sampling rate                            : 48.0 kHz
  67. Frame rate                               : 31.250 FPS (1536 SPF)
  68. Compression mode                         : Lossy
  69. Stream size                              : 462 MiB (1%)
  70. Title                                    : DD 5.1
  71. Language                                 : English
  72. Service kind                             : Complete Main
  73. Default                                  : No
  74. Forced                                   : No
  75. Audio #3
  76. ID                                       : 4
  77. ID in the original source medium         : 4354 (0x1102)
  78. Format                                   : PCM
  79. Format settings                          : Little / Signed
  80. Codec ID                                 : A_PCM/INT/LIT
  81. Duration                                 : 1 h 40 min
  82. Bit rate mode                            : Constant
  83. Bit rate                                 : 2 304 kb/s
  84. Channel(s)                               : 2 channels
  85. Sampling rate                            : 48.0 kHz
  86. Frame rate                               : 30.000 FPS (1600 SPF)
  87. Bit depth                                : 24 bits
  88. Stream size                              : 1.62 GiB (3%)
  89. Title                                    : LPCM 2.0
  90. Language                                 : English
  91. Default                                  : No
  92. Forced                                   : No
  93. Original source medium                   : Blu-ray
  94. Audio #4
  95. ID                                       : 5
  96. ID in the original source medium         : 4353 (0x1101)
  97. Format                                   : DTS XLL
  98. Format/Info                              : Digital Theater Systems
  99. Commercial name                          : DTS-HD Master Audio
  100. Codec ID                                 : A_DTS
  101. Duration                                 : 1 h 40 min
  102. Bit rate mode                            : Variable
  103. Bit rate                                 : 2 586 kb/s
  104. Channel(s)                               : 6 channels
  105. Channel layout                           : C L R Ls Rs LFE
  106. Sampling rate                            : 48.0 kHz
  107. Frame rate                               : 93.750 FPS (512 SPF)
  108. Bit depth                                : 16 bits
  109. Compression mode                         : Lossless
  110. Stream size                              : 1.82 GiB (3%)
  111. Title                                    : DTS-HD MA 7.1
  112. Language                                 : German
  113. Default                                  : No
  114. Forced                                   : No
  115. Original source medium                   : Blu-ray
  116. Audio #5
  117. ID                                       : 6
  118. ID in the original source medium         : 4352 (0x1100)
  119. Format                                   : PCM
  120. Format settings                          : Little / Signed
  121. Codec ID                                 : A_PCM/INT/LIT
  122. Duration                                 : 1 h 40 min
  123. Bit rate mode                            : Constant
  124. Bit rate                                 : 1 536 kb/s
  125. Channel(s)                               : 2 channels
  126. Sampling rate                            : 48.0 kHz
  127. Frame rate                               : 30.000 FPS (1600 SPF)
  128. Bit depth                                : 16 bits
  129. Stream size                              : 1.08 GiB (2%)
  130. Title                                    : LPCM 2.0
  131. Language                                 : German
  132. Default                                  : No
  133. Forced                                   : No
  134. Original source medium                   : Blu-ray
  135. Audio #6
  136. ID                                       : 7
  137. ID in the original source medium         : 4356 (0x1104)
  138. Format                                   : AC-3
  139. Format/Info                              : Audio Coding 3
  140. Commercial name                          : Dolby Digital
  141. Codec ID                                 : A_AC3
  142. Duration                                 : 1 h 40 min
  143. Bit rate mode                            : Constant
  144. Bit rate                                 : 224 kb/s
  145. Channel(s)                               : 2 channels
  146. Channel layout                           : L R
  147. Sampling rate                            : 48.0 kHz
  148. Frame rate                               : 31.250 FPS (1536 SPF)
  149. Compression mode                         : Lossy
  150. Stream size                              : 162 MiB (0%)
  151. Title                                    : DD 2.0
  152. Language                                 : English
  153. Service kind                             : Complete Main
  154. Default                                  : No
  155. Forced                                   : No
  156. Original source medium                   : Blu-ray
  157. Audio #7
  158. ID                                       : 8
  159. ID in the original source medium         : 4357 (0x1105)
  160. Format                                   : AC-3
  161. Format/Info                              : Audio Coding 3
  162. Commercial name                          : Dolby Digital
  163. Codec ID                                 : A_AC3
  164. Duration                                 : 1 h 40 min
  165. Bit rate mode                            : Constant
  166. Bit rate                                 : 224 kb/s
  167. Channel(s)                               : 2 channels
  168. Channel layout                           : L R
  169. Sampling rate                            : 48.0 kHz
  170. Frame rate                               : 31.250 FPS (1536 SPF)
  171. Compression mode                         : Lossy
  172. Stream size                              : 162 MiB (0%)
  173. Title                                    : DD 2.0
  174. Language                                 : English
  175. Service kind                             : Complete Main
  176. Default                                  : No
  177. Forced                                   : No
  178. Original source medium                   : Blu-ray
  179. Text #1
  180. ID                                       : 9
  181. Format                                   : UTF-8
  182. Codec ID                                 : S_TEXT/UTF8
  183. Codec ID/Info                            : UTF-8 Plain Text
  184. Duration                                 : 1 h 38 min
  185. Bit rate                                 : 54 b/s
  186. Count of elements                        : 1138
  187. Stream size                              : 39.3 KiB (0%)
  188. Title                                    : SRT
  189. Language                                 : English
  190. Default                                  : Yes
  191. Forced                                   : No
  192. Text #2
  193. ID                                       : 10
  194. ID in the original source medium         : 4769 (0x12A1)
  195. Format                                   : PGS
  196. Muxing mode                              : zlib
  197. Codec ID                                 : S_HDMV/PGS
  198. Codec ID/Info                            : Picture based subtitle format used on BDs/HD-DVDs
  199. Duration                                 : 1 h 38 min
  200. Bit rate                                 : 33.3 kb/s
  201. Count of elements                        : 2292
  202. Stream size                              : 23.4 MiB (0%)
  203. Language                                 : English
  204. Default                                  : No
  205. Forced                                   : No
  206. Original source medium                   : Blu-ray
  207. Text #3
  208. ID                                       : 11
  209. ID in the original source medium         : 4768 (0x12A0)
  210. Format                                   : PGS
  211. Muxing mode                              : zlib
  212. Codec ID                                 : S_HDMV/PGS
  213. Codec ID/Info                            : Picture based subtitle format used on BDs/HD-DVDs
  214. Duration                                 : 1 h 39 min
  215. Bit rate                                 : 26.6 kb/s
  216. Count of elements                        : 1858
  217. Stream size                              : 18.9 MiB (0%)
  218. Title                                    : FORCED
  219. Language                                 : German
  220. Default                                  : No
  221. Forced                                   : No
  222. Original source medium                   : Blu-ray
  223. Text #4
  224. ID                                       : 12
  225. ID in the original source medium         : 4770 (0x12A2)
  226. Format                                   : PGS
  227. Muxing mode                              : zlib
  228. Codec ID                                 : S_HDMV/PGS
  229. Codec ID/Info                            : Picture based subtitle format used on BDs/HD-DVDs
  230. Duration                                 : 1 h 40 min
  231. Bit rate                                 : 43.6 kb/s
  232. Count of elements                        : 1928
  233. Stream size                              : 31.2 MiB (0%)
  234. Language                                 : German
  235. Default                                  : No
  236. Forced                                   : No
  237. Original source medium                   : Blu-ray
  238. Text #5
  239. ID                                       : 13
  240. ID in the original source medium         : 4771 (0x12A3)
  241. Format                                   : PGS
  242. Muxing mode                              : zlib
  243. Codec ID                                 : S_HDMV/PGS
  244. Codec ID/Info                            : Picture based subtitle format used on BDs/HD-DVDs
  245. Duration                                 : 1 h 40 min
  246. Bit rate                                 : 49.2 kb/s
  247. Count of elements                        : 1936
  248. Stream size                              : 35.3 MiB (0%)
  249. Language                                 : German
  250. Default                                  : No
  251. Forced                                   : No
  252. Original source medium                   : Blu-ray
  253. Menu
  254. 00:00:00.000                             : en:Chapter 01
  255. 00:03:22.202                             : en:Chapter 02
  256. 00:13:41.028                             : en:Chapter 03
  257. 00:21:57.774                             : en:Chapter 04
  258. 00:29:00.739                             : en:Chapter 05
  259. 00:34:46.084                             : en:Chapter 06
  260. 00:40:24.797                             : en:Chapter 07
  261. 00:45:14.962                             : en:Chapter 08
  262. 00:50:00.914                             : en:Chapter 09
  263. 00:55:49.262                             : en:Chapter 10
  264. 01:02:37.378                             : en:Chapter 11
  265. 01:09:11.772                             : en:Chapter 12
  266. 01:16:41.096                             : en:Chapter 13
  267. 01:23:29.921                             : en:Chapter 14
  268. 01:29:39.957                             : en:Chapter 15
  269. 01:33:25.391                             : en:Chapter 16
  270. 01:40:42.828                             : en:Chapter 17
复制代码




                                       
                                       

                                       
                                       
                                       




回复

使用道具 举报

懒得打字嘛,点击右侧快捷回复 【右侧内容,后台自定义】
您需要登录后才可以回帖 登录 | 立即加入

本版积分规则

Archiver|小黑屋| 蓝光电影网 |网站地图

Copyright © 2021 Comsenz Inc. Powered by 蓝光电影网

蓝光电影网

本站内容由用户自主分享和转载自互联网,转载目的在于传递更多信息,并不代表本网赞同其观点和对其真实性负责。

如有侵权、违反国家法律政策行为,请联系我们,我们会第一时间及时清除和处理!

举报反馈邮箱:[email protected]

快速回复 返回顶部 返回列表