找回密码

蓝光电影网

查看: 335|回复: 0

[剧情] 洗车场 Car.Wash.1976.iNTERNAL.1080p.BluRay.x264-GUACAMOLE 14.81GB

[复制链接]
蓝光币
733
发表于 2021-10-26 08:48:42 | 显示全部楼层 |阅读模式


◎译  名 洗车场
◎片  名 Car Wash
◎年  代 1976
◎产  地 美国
◎类  别 剧情 / 笑剧 / 恋爱
◎语  言 英语,西班牙语
◎上映日期 1976-10-22
◎豆瓣评分 /10 from 0 users
◎豆瓣链接 https://movie.douban.com/subject/1292883/
◎片  长 97 分钟
◎导  演 迈克尔·舒尔茨 Michael Schultz
◎编  剧 乔·舒马赫 Joel Schumacher
◎主  演 富兰克林·阿贾伊 Franklyn Ajaye
       苏利伯维尔 Sully Boyar
◎标  签 美国 | 笑剧 | 美国电影 | 1976 | 1970s | 歌剧电影。音乐片。 | OnTheBigScreen | 美國
◎简  介


  http://www.answers.com/topic/car-wash-film
  
  Car Wash is a 1976 American comedy film released by Universal Pictures. The Art Linson Production was directed by Michael Schultz from a screenplay by Joel Schumacher. Starring Franklyn Ajaye, Bill Duke, George Carlin, Irwin Corey, Ivan Dixon, Antonio Fargas, Jack Kehoe, Clarence Muse, Lorraine Gary, The Pointer Sisters and Richard Pryor, Car Wash is an episodic comedy about a day in the lives of the employees and the owner, Mr. B (Sully Boyar), of a Los Angeles, California car wash (filmed at a Westlake car wash at the corner of Rampart Blvd. and 6th Street). Car Wash is a broad and scabrous comedy, in which African American working class and gay characters are depicted in a more forthright manner than was common at the time the film was made.
  
  Overview
  
  Originally conceived as a musical, Car Wash deals with the exploits of a close-knit, multiracial group of employees at a Los Angeles car wash. In an episodic fashion, the film covers a full day, during which all manner of strange visitors make appearances, including Lorraine Gary as a hysterical wealthy woman from Beverly Hills dealing with a young carsick son, Richard Pryor as a hustling, flamboyant, money-hungry evangelist whose pseudo-gospel of financial prosperity is loved by most (including his female entourage, played by The Pointer Sisters) but loathed by one (the one being Abdullah (Bill Duke), a young and frustrated Black Power revolutionary); there's also a man ("Professor" Irwin Corey) whose strange actions and dress fit the profile of the notorious "pop bottle bomber" being sought that day by the police, causing all the employees, customers and Mr. B to fear for their lives, but the strange man's pop bottle "bomb" is none other than a urine sample as he is on his way to the hospital.
  
  Mr B's son Irwin (Richard Brestoff), a left-wing college student who smokes pot in the men's restroom and carries around a copy of Quotations from Chairman Mao, insists on spending a day with the "working class" employees, since he considers them "brothers" in the "struggle", but as he's the boss's son, they give him the first "human car wash" as a joke, which he takes in a good-natured (if pot-induced) stride. Additionally, George Carlin appears as a taxi driver searching for a prostitute who stiffed him for a fare; the prostitute, Marlene, has her own hopes shattered as a customer (unseen) that she apparently has fallen in love with has given her a false telephone number. Lonnie (Ivan Dixon) is an older employee who tries to mentor Abdullah while struggling to raise two young children on the meager salary paid by Mr. B, as well as fending off his parole officer (Jason Bernard). Abdullah has a confrontation with Lindy (Antonio Fargas) and sharply criticizes Lindy's transvestite status, to which Lindy coolly replies, "I'm more man than you'll ever be and more woman than you'll ever get".
◎获奖情况
  第30届戛纳电影节 ?(1977)
  主比赛单元金棕榈奖(提名) 迈克尔·舒尔茨
  技术大奖 迈克尔·舒尔茨
  最好音乐 NormanWhitfield
  1. Video
  2. ID                                       : 1
  3. Format                                   : AVC
  4. Format/Info                              : Advanced Video Codec
  5. Format profile                           : [email protected]
  6. Format settings                          : CABAC / 4 Ref Frames
  7. Format settings, CABAC                   : Yes
  8. Format settings, Reference frames        : 4 frames
  9. Codec ID                                 : V_MPEG4/ISO/AVC
  10. Duration                                 : 1 h 36 min
  11. Bit rate                                 : 21.7 Mb/s
  12. Width                                    : 1 916 pixels
  13. Height                                   : 1 040 pixels
  14. Display aspect ratio                     : 1.85:1
  15. Frame rate mode                          : Constant
  16. Frame rate                               : 23.976 (24000/1001/189150) FPS
  17. Color space                              : YUV
  18. Chroma subsampling                       : 4:2:0
  19. Bit depth                                : 8 bits
  20. Scan type                                : Progressive
  21. Bits/(Pixel*Frame)                       : 0.454
  22. Stream size                              : 14.6 GiB (98%)
  23. Writing library                          : x264 core 164 r3075 66a5bc1
  24. Encoding settings                        : cabac=1 / ref=4 / deblock=1:-3:-3 / analyse=0x3:0x133 / me=umh / subme=9 / psy=1 / psy_rd=1.00:0.00 / mixed_ref=1 / me_range=16 / chroma_me=1 / trellis=2 / 8x8dct=1 / cqm=0 / deadzone=21,11 / fast_pskip=0 / chroma_qp_offset=-2 / threads=32 / lookahead_threads=2 / sliced_threads=0 / nr=0 / decimate=1 / interlaced=0 / bluray_compat=0 / constrained_intra=0 / bframes=3 / b_pyramid=2 / b_adapt=2 / b_bias=0 / direct=3 / weightb=1 / open_gop=0 / weightp=2 / keyint=250 / keyint_min=23 / scenecut=40 / intra_refresh=0 / rc_lookahead=60 / rc=crf / mbtree=1 / crf=19.5 / qcomp=0.60 / qpmin=0 / qpmax=69 / qpstep=4 / ip_ratio=1.40 / aq=3:0.60
  25. Default                                  : Yes
  26. Forced                                   : No
  27. Color range                              : Limited
  28. Matrix coefficients                      : BT.709

  29. Audio
  30. ID                                       : 2
  31. Format                                   : FLAC
  32. Format/Info                              : Free Lossless Audio Codec
  33. Codec ID                                 : A_FLAC
  34. Duration                                 : 1 h 36 min
  35. Bit rate mode                            : Variable
  36. Bit rate                                 : 312 kb/s
  37. Channel(s)                               : 2 channels
  38. Channel layout                           : L R
  39. Sampling rate                            : 48.0 kHz
  40. Frame rate                               : 11.719 FPS (4096 SPF)
  41. Bit depth                                : 16 bits
  42. Compression mode                         : Lossless
  43. Stream size                              : 215 MiB (1%)
  44. Writing library                          : libFLAC 1.2.1 (UTC 2007-09-17)
  45. Language                                 : English
  46. Default                                  : Yes
  47. Forced                                   : No

  48. Text #1
  49. ID                                       : 3
  50. Format                                   : PGS
  51. Muxing mode                              : zlib
  52. Codec ID                                 : S_HDMV/PGS
  53. Codec ID/Info                            : Picture based subtitle format used on BDs/HD-DVDs
  54. Duration                                 : 1 h 35 min
  55. Bit rate                                 : 29.2 kb/s
  56. Count of elements                        : 2704
  57. Stream size                              : 20.0 MiB (0%)
  58. Language                                 : English
  59. Default                                  : No
  60. Forced                                   : No

  61. Text #2
  62. ID                                       : 4
  63. Format                                   : PGS
  64. Muxing mode                              : zlib
  65. Codec ID                                 : S_HDMV/PGS
  66. Codec ID/Info                            : Picture based subtitle format used on BDs/HD-DVDs
  67. Duration                                 : 1 h 35 min
  68. Bit rate                                 : 25.8 kb/s
  69. Count of elements                        : 2045
  70. Stream size                              : 17.6 MiB (0%)
  71. Language                                 : German
  72. Default                                  : No
  73. Forced                                   : No

  74. Text #3
  75. ID                                       : 5
  76. Format                                   : PGS
  77. Muxing mode                              : zlib
  78. Codec ID                                 : S_HDMV/PGS
  79. Codec ID/Info                            : Picture based subtitle format used on BDs/HD-DVDs
  80. Duration                                 : 1 h 33 min
  81. Bit rate                                 : 14.5 kb/s
  82. Count of elements                        : 858
  83. Stream size                              : 9.72 MiB (0%)
  84. Language                                 : German
  85. Default                                  : No
  86. Forced                                   : No

  87. Menu
  88. 00:00:00.000                             : en:00:00:00.000
  89. 00:06:39.399                             : en:00:06:39.399
  90. 00:13:33.813                             : en:00:13:33.813
  91. 00:22:37.356                             : en:00:22:37.356
  92. 00:33:07.986                             : en:00:33:07.986
  93. 00:39:59.397                             : en:00:39:59.397
  94. 00:49:45.983                             : en:00:49:45.983
  95. 00:59:42.579                             : en:00:59:42.579
  96. 01:04:33.870                             : en:01:04:33.870
  97. 01:11:32.288                             : en:01:11:32.288
  98. 01:21:24.880                             : en:01:21:24.880
  99. 01:29:30.365                             : en:01:29:30.365
复制代码





                                       
                                       

                                       
                                       
                                       




回复

使用道具 举报

懒得打字嘛,点击右侧快捷回复 【右侧内容,后台自定义】
您需要登录后才可以回帖 登录 | 立即加入

本版积分规则

Archiver|小黑屋| 蓝光电影网 |网站地图

Copyright © 2021 Comsenz Inc. Powered by 蓝光电影网

蓝光电影网

本站内容由用户自主分享和转载自互联网,转载目的在于传递更多信息,并不代表本网赞同其观点和对其真实性负责。

如有侵权、违反国家法律政策行为,请联系我们,我们会第一时间及时清除和处理!

举报反馈邮箱:[email protected]

快速回复 返回顶部 返回列表