找回密码

蓝光电影网

查看: 281|回复: 2

[REMUX.HEVC] 屏住呼吸2/别呼吸2 Dont.Breathe.2.2021.2160p.BluRay.REMUX.HEVC.DTS-HD.MA.TrueHD.7.1.Atmos-FGT 50.00GB

[复制链接]
蓝光币
682
发表于 2021-10-26 09:27:10 | 显示全部楼层 |阅读模式


◎译  名 屏住呼吸2/别呼吸2/临时停止呼吸2(台)/禁室杀戮2(港)
◎片  名 Don't Breathe 2
◎年  代 2021
◎产  地 美国,塞尔维亚
◎类  别 惊悚 / 可骇
◎语  言 英语
◎上映日期 2021-08-13(美国)
◎豆瓣评分 6.5/10 from 18096 users
◎豆瓣链接 https://movie.douban.com/subject/26915921/
◎片  长 98分钟
◎导  演 罗多·赛亚格斯 Rodo Sayagues
◎编  剧 费德·阿尔瓦雷兹 Fede Alvarez / 罗多·赛亚格斯 Rodo Sayagues
◎主  演 史蒂芬·朗 Stephen Lang
       布兰登·萨克斯顿 Brendan Sexton III
       马德琳·格雷斯 Madelyn Grace
       罗奇·威廉姆斯 Rocci Williams
       斯蒂芬妮·阿西拉 Stephanie Arcila
       鲍比·斯科菲尔德 Bobby Schofield
       戴安娜·巴尼科娃 Diaana Babnicova
       亚当·扬 Adam Young
       克里斯蒂安·泽吉亚 Christian Zagia
       罗恩·罗格尔 Ron Rogell
       菲奥娜·奥肖内西 Fiona O'Shaughnessy
◎标  签 惊悚 | 犯罪 | 美国 | 悬疑 | 2021 | 可骇 | 美国电影 | 电影
◎简  介


  《屏住呼吸1》编剧罗多·赛亚格斯执导,并同前作导演费德·阿尔瓦雷兹一路写剧本,史蒂芬·朗、罗奇·威廉姆斯、斯蒂芬妮·阿西拉、鲍比·斯科菲尔德、亚当·扬等主演。
  
  故事发生在最初致命的入室抢劫以后的几年,眼盲的退伍老兵诺曼过着安静的生活,直到曩昔的罪行起头找上他。
  1. Video
  2. ID                                       : 1
  3. ID in the original source medium         : 4113 (0x1011)
  4. Format                                   : HEVC
  5. Format/Info                              : High Efficiency Video Coding
  6. Format profile                           : Main [email protected]@High
  7. HDR format                               : SMPTE ST 2086, HDR10 compatible
  8. Codec ID                                 : V_MPEGH/ISO/HEVC
  9. Duration                                 : 1 h 38 min
  10. Bit rate                                 : 57.9 Mb/s
  11. Width                                    : 3 840 pixels
  12. Height                                   : 2 160 pixels
  13. Display aspect ratio                     : 16:9
  14. Frame rate mode                          : Constant
  15. Frame rate                               : 23.976 (24000/1001/189150) FPS
  16. Color space                              : YUV
  17. Chroma subsampling                       : 4:2:0 (Type 2)
  18. Bit depth                                : 10 bits
  19. Bits/(Pixel*Frame)                       : 0.291
  20. Stream size                              : 39.7 GiB (79%)
  21. Language                                 : English
  22. Default                                  : No
  23. Forced                                   : No
  24. Color range                              : Limited
  25. Color primaries                          : BT.2020
  26. Transfer characteristics                 : PQ
  27. Matrix coefficients                      : BT.2020 non-constant
  28. Mastering display color primaries        : BT.2020
  29. Mastering display luminance              : min: 0.0001 cd/m2, max: 1000 cd/m2
  30. Maximum Content Light Level              : 995 cd/m2
  31. Maximum Frame-Average Light Level        : 372 cd/m2
  32. Original source medium                   : Blu-ray

  33. Audio #1
  34. ID                                       : 2
  35. ID in the original source medium         : 4352 (0x1100)
  36. Format                                   : MLP FBA 16-ch
  37. Format/Info                              : Meridian Lossless Packing FBA with 16-channel presentation
  38. Commercial name                          : Dolby TrueHD with Dolby Atmos
  39. Codec ID                                 : A_TRUEHD
  40. Duration                                 : 1 h 38 min
  41. Bit rate mode                            : Variable
  42. Bit rate                                 : 4 174 kb/s
  43. Maximum bit rate                         : 7 536 kb/s
  44. Channel(s)                               : 8 channels
  45. Channel layout                           : L R C LFE Ls Rs Lb Rb
  46. Sampling rate                            : 48.0 kHz
  47. Frame rate                               : 1 200.000 FPS (40 SPF)
  48. Bit depth                                : 24 bits
  49. Compression mode                         : Lossless
  50. Stream size                              : 2.86 GiB (6%)
  51. Title                                    : TrueHD 7.1 Atmos
  52. Language                                 : English
  53. Default                                  : Yes
  54. Forced                                   : No
  55. Original source medium                   : Blu-ray
  56. Number of dynamic objects                : 11
  57. Bed channel count                        : 1 channel
  58. Bed channel configuration                : LFE

  59. Audio #2
  60. ID                                       : 3
  61. Format                                   : DTS XLL
  62. Format/Info                              : Digital Theater Systems
  63. Commercial name                          : DTS-HD Master Audio
  64. Codec ID                                 : A_DTS
  65. Duration                                 : 1 h 38 min
  66. Bit rate mode                            : Variable
  67. Bit rate                                 : 3 981 kb/s
  68. Channel(s)                               : 8 channels
  69. Channel layout                           : C L R LFE Lb Rb Lss Rss
  70. Sampling rate                            : 48.0 kHz
  71. Frame rate                               : 93.750 FPS (512 SPF)
  72. Bit depth                                : 24 bits
  73. Compression mode                         : Lossless
  74. Stream size                              : 2.73 GiB (5%)
  75. Title                                    : DTS-HD MA 7.1
  76. Language                                 : English
  77. Default                                  : No
  78. Forced                                   : No

  79. Audio #3
  80. ID                                       : 4
  81. ID in the original source medium         : 4352 (0x1100)
  82. Format                                   : AC-3
  83. Format/Info                              : Audio Coding 3
  84. Commercial name                          : Dolby Digital
  85. Codec ID                                 : A_AC3
  86. Duration                                 : 1 h 38 min
  87. Bit rate mode                            : Constant
  88. Bit rate                                 : 640 kb/s
  89. Channel(s)                               : 6 channels
  90. Channel layout                           : L R C LFE Ls Rs
  91. Sampling rate                            : 48.0 kHz
  92. Frame rate                               : 31.250 FPS (1536 SPF)
  93. Compression mode                         : Lossy
  94. Stream size                              : 450 MiB (1%)
  95. Title                                    : DD 5.1
  96. Language                                 : English
  97. Service kind                             : Complete Main
  98. Default                                  : No
  99. Forced                                   : No
  100. Original source medium                   : Blu-ray

  101. Audio #4
  102. ID                                       : 5
  103. ID in the original source medium         : 4353 (0x1101)
  104. Format                                   : AC-3
  105. Format/Info                              : Audio Coding 3
  106. Commercial name                          : Dolby Digital
  107. Codec ID                                 : A_AC3
  108. Duration                                 : 1 h 38 min
  109. Bit rate mode                            : Constant
  110. Bit rate                                 : 640 kb/s
  111. Channel(s)                               : 6 channels
  112. Channel layout                           : L R C LFE Ls Rs
  113. Sampling rate                            : 48.0 kHz
  114. Frame rate                               : 31.250 FPS (1536 SPF)
  115. Compression mode                         : Lossy
  116. Stream size                              : 450 MiB (1%)
  117. Title                                    : DD 5.1
  118. Language                                 : English
  119. Service kind                             : Complete Main
  120. Default                                  : No
  121. Forced                                   : No
  122. Original source medium                   : Blu-ray

  123. Audio #5
  124. ID                                       : 6
  125. ID in the original source medium         : 4354 (0x1102)
  126. Format                                   : AC-3
  127. Format/Info                              : Audio Coding 3
  128. Commercial name                          : Dolby Digital
  129. Codec ID                                 : A_AC3
  130. Duration                                 : 1 h 38 min
  131. Bit rate mode                            : Constant
  132. Bit rate                                 : 640 kb/s
  133. Channel(s)                               : 6 channels
  134. Channel layout                           : L R C LFE Ls Rs
  135. Sampling rate                            : 48.0 kHz
  136. Frame rate                               : 31.250 FPS (1536 SPF)
  137. Compression mode                         : Lossy
  138. Stream size                              : 450 MiB (1%)
  139. Title                                    : DD 5.1
  140. Language                                 : French
  141. Service kind                             : Complete Main
  142. Default                                  : No
  143. Forced                                   : No
  144. Original source medium                   : Blu-ray

  145. Audio #6
  146. ID                                       : 7
  147. ID in the original source medium         : 4355 (0x1103)
  148. Format                                   : AC-3
  149. Format/Info                              : Audio Coding 3
  150. Commercial name                          : Dolby Digital
  151. Codec ID                                 : A_AC3
  152. Duration                                 : 1 h 38 min
  153. Bit rate mode                            : Constant
  154. Bit rate                                 : 640 kb/s
  155. Channel(s)                               : 6 channels
  156. Channel layout                           : L R C LFE Ls Rs
  157. Sampling rate                            : 48.0 kHz
  158. Frame rate                               : 31.250 FPS (1536 SPF)
  159. Compression mode                         : Lossy
  160. Stream size                              : 450 MiB (1%)
  161. Title                                    : DD 5.1
  162. Language                                 : French
  163. Service kind                             : Complete Main
  164. Default                                  : No
  165. Forced                                   : No
  166. Original source medium                   : Blu-ray

  167. Audio #7
  168. ID                                       : 8
  169. ID in the original source medium         : 4356 (0x1104)
  170. Format                                   : DTS XLL
  171. Format/Info                              : Digital Theater Systems
  172. Commercial name                          : DTS-HD Master Audio
  173. Codec ID                                 : A_DTS
  174. Duration                                 : 1 h 38 min
  175. Bit rate mode                            : Variable
  176. Bit rate                                 : 2 237 kb/s
  177. Channel(s)                               : 6 channels
  178. Channel layout                           : C L R Ls Rs LFE
  179. Sampling rate                            : 48.0 kHz
  180. Frame rate                               : 93.750 FPS (512 SPF)
  181. Bit depth                                : 16 bits
  182. Compression mode                         : Lossless
  183. Stream size                              : 1.53 GiB (3%)
  184. Title                                    : DTS-HD MA 5.1
  185. Language                                 : Portuguese
  186. Default                                  : No
  187. Forced                                   : No
  188. Original source medium                   : Blu-ray

  189. Audio #8
  190. ID                                       : 9
  191. ID in the original source medium         : 4357 (0x1105)
  192. Format                                   : AC-3
  193. Format/Info                              : Audio Coding 3
  194. Commercial name                          : Dolby Digital
  195. Codec ID                                 : A_AC3
  196. Duration                                 : 1 h 38 min
  197. Bit rate mode                            : Constant
  198. Bit rate                                 : 640 kb/s
  199. Channel(s)                               : 6 channels
  200. Channel layout                           : L R C LFE Ls Rs
  201. Sampling rate                            : 48.0 kHz
  202. Frame rate                               : 31.250 FPS (1536 SPF)
  203. Compression mode                         : Lossy
  204. Stream size                              : 450 MiB (1%)
  205. Title                                    : DD 5.1
  206. Language                                 : Spanish
  207. Service kind                             : Complete Main
  208. Default                                  : No
  209. Forced                                   : No
  210. Original source medium                   : Blu-ray

  211. Audio #9
  212. ID                                       : 10
  213. ID in the original source medium         : 4358 (0x1106)
  214. Format                                   : AC-3
  215. Format/Info                              : Audio Coding 3
  216. Commercial name                          : Dolby Digital
  217. Codec ID                                 : A_AC3
  218. Duration                                 : 1 h 38 min
  219. Bit rate mode                            : Constant
  220. Bit rate                                 : 640 kb/s
  221. Channel(s)                               : 6 channels
  222. Channel layout                           : L R C LFE Ls Rs
  223. Sampling rate                            : 48.0 kHz
  224. Frame rate                               : 31.250 FPS (1536 SPF)
  225. Compression mode                         : Lossy
  226. Stream size                              : 450 MiB (1%)
  227. Title                                    : DD 5.1
  228. Language                                 : Thai
  229. Service kind                             : Complete Main
  230. Default                                  : No
  231. Forced                                   : No
  232. Original source medium                   : Blu-ray

  233. Audio #10
  234. ID                                       : 11
  235. ID in the original source medium         : 4359 (0x1107)
  236. Format                                   : AC-3
  237. Format/Info                              : Audio Coding 3
  238. Commercial name                          : Dolby Digital
  239. Codec ID                                 : A_AC3
  240. Duration                                 : 1 h 38 min
  241. Bit rate mode                            : Constant
  242. Bit rate                                 : 192 kb/s
  243. Channel(s)                               : 2 channels
  244. Channel layout                           : L R
  245. Sampling rate                            : 48.0 kHz
  246. Frame rate                               : 31.250 FPS (1536 SPF)
  247. Compression mode                         : Lossy
  248. Stream size                              : 135 MiB (0%)
  249. Title                                    : DD 2.0
  250. Language                                 : English
  251. Service kind                             : Complete Main
  252. Default                                  : No
  253. Forced                                   : No
  254. Original source medium                   : Blu-ray

  255. Audio #11
  256. ID                                       : 12
  257. ID in the original source medium         : 4360 (0x1108)
  258. Format                                   : AC-3
  259. Format/Info                              : Audio Coding 3
  260. Commercial name                          : Dolby Digital
  261. Codec ID                                 : A_AC3
  262. Duration                                 : 1 h 38 min
  263. Bit rate mode                            : Constant
  264. Bit rate                                 : 192 kb/s
  265. Channel(s)                               : 2 channels
  266. Channel layout                           : L R
  267. Sampling rate                            : 48.0 kHz
  268. Frame rate                               : 31.250 FPS (1536 SPF)
  269. Compression mode                         : Lossy
  270. Stream size                              : 135 MiB (0%)
  271. Title                                    : DD 2.0
  272. Language                                 : English
  273. Service kind                             : Complete Main
  274. Default                                  : No
  275. Forced                                   : No
  276. Original source medium                   : Blu-ray

  277. Text #1
  278. ID                                       : 13
  279. Format                                   : UTF-8
  280. Codec ID                                 : S_TEXT/UTF8
  281. Codec ID/Info                            : UTF-8 Plain Text
  282. Duration                                 : 1 h 26 min
  283. Bit rate                                 : 15 b/s
  284. Count of elements                        : 467
  285. Stream size                              : 9.84 KiB (0%)
  286. Title                                    : SRT
  287. Language                                 : English
  288. Default                                  : Yes
  289. Forced                                   : No

  290. Text #2
  291. ID                                       : 14
  292. ID in the original source medium         : 4768 (0x12A0)
  293. Format                                   : PGS
  294. Muxing mode                              : zlib
  295. Codec ID                                 : S_HDMV/PGS
  296. Codec ID/Info                            : Picture based subtitle format used on BDs/HD-DVDs
  297. Duration                                 : 1 h 30 min
  298. Bit rate                                 : 14.9 kb/s
  299. Count of elements                        : 1466
  300. Stream size                              : 9.67 MiB (0%)
  301. Language                                 : English
  302. Default                                  : No
  303. Forced                                   : No
  304. Original source medium                   : Blu-ray

  305. Text #3
  306. ID                                       : 15
  307. ID in the original source medium         : 4769 (0x12A1)
  308. Format                                   : PGS
  309. Muxing mode                              : zlib
  310. Codec ID                                 : S_HDMV/PGS
  311. Codec ID/Info                            : Picture based subtitle format used on BDs/HD-DVDs
  312. Duration                                 : 1 h 26 min
  313. Bit rate                                 : 9 894 b/s
  314. Count of elements                        : 986
  315. Stream size                              : 6.15 MiB (0%)
  316. Language                                 : English
  317. Default                                  : No
  318. Forced                                   : No
  319. Original source medium                   : Blu-ray

  320. Text #4
  321. ID                                       : 16
  322. ID in the original source medium         : 4770 (0x12A2)
  323. Format                                   : PGS
  324. Muxing mode                              : zlib
  325. Codec ID                                 : S_HDMV/PGS
  326. Codec ID/Info                            : Picture based subtitle format used on BDs/HD-DVDs
  327. Duration                                 : 1 h 36 min
  328. Bit rate                                 : 7 679 b/s
  329. Count of elements                        : 918
  330. Stream size                              : 5.29 MiB (0%)
  331. Language                                 : Chinese
  332. Default                                  : No
  333. Forced                                   : No
  334. Original source medium                   : Blu-ray

  335. Text #5
  336. ID                                       : 17
  337. ID in the original source medium         : 4771 (0x12A3)
  338. Format                                   : PGS
  339. Muxing mode                              : zlib
  340. Codec ID                                 : S_HDMV/PGS
  341. Codec ID/Info                            : Picture based subtitle format used on BDs/HD-DVDs
  342. Duration                                 : 1 h 36 min
  343. Bit rate                                 : 7 595 b/s
  344. Count of elements                        : 914
  345. Stream size                              : 5.23 MiB (0%)
  346. Language                                 : Chinese
  347. Default                                  : No
  348. Forced                                   : No
  349. Original source medium                   : Blu-ray

  350. Text #6
  351. ID                                       : 18
  352. ID in the original source medium         : 4772 (0x12A4)
  353. Format                                   : PGS
  354. Muxing mode                              : zlib
  355. Codec ID                                 : S_HDMV/PGS
  356. Codec ID/Info                            : Picture based subtitle format used on BDs/HD-DVDs
  357. Duration                                 : 1 h 36 min
  358. Bit rate                                 : 7 190 b/s
  359. Count of elements                        : 916
  360. Stream size                              : 4.95 MiB (0%)
  361. Language                                 : Chinese
  362. Default                                  : No
  363. Forced                                   : No
  364. Original source medium                   : Blu-ray

  365. Text #7
  366. ID                                       : 19
  367. ID in the original source medium         : 4773 (0x12A5)
  368. Format                                   : PGS
  369. Muxing mode                              : zlib
  370. Codec ID                                 : S_HDMV/PGS
  371. Codec ID/Info                            : Picture based subtitle format used on BDs/HD-DVDs
  372. Duration                                 : 1 h 36 min
  373. Bit rate                                 : 8 093 b/s
  374. Count of elements                        : 846
  375. Stream size                              : 5.57 MiB (0%)
  376. Language                                 : French
  377. Default                                  : No
  378. Forced                                   : No
  379. Original source medium                   : Blu-ray

  380. Text #8
  381. ID                                       : 20
  382. ID in the original source medium         : 4774 (0x12A6)
  383. Format                                   : PGS
  384. Muxing mode                              : zlib
  385. Codec ID                                 : S_HDMV/PGS
  386. Codec ID/Info                            : Picture based subtitle format used on BDs/HD-DVDs
  387. Duration                                 : 1 h 36 min
  388. Bit rate                                 : 9 795 b/s
  389. Count of elements                        : 906
  390. Stream size                              : 6.74 MiB (0%)
  391. Language                                 : Indonesian
  392. Default                                  : No
  393. Forced                                   : No
  394. Original source medium                   : Blu-ray

  395. Text #9
  396. ID                                       : 21
  397. ID in the original source medium         : 4775 (0x12A7)
  398. Format                                   : PGS
  399. Muxing mode                              : zlib
  400. Codec ID                                 : S_HDMV/PGS
  401. Codec ID/Info                            : Picture based subtitle format used on BDs/HD-DVDs
  402. Duration                                 : 1 h 36 min
  403. Bit rate                                 : 7 309 b/s
  404. Count of elements                        : 924
  405. Stream size                              : 5.03 MiB (0%)
  406. Language                                 : Korean
  407. Default                                  : No
  408. Forced                                   : No
  409. Original source medium                   : Blu-ray

  410. Text #10
  411. ID                                       : 22
  412. ID in the original source medium         : 4776 (0x12A8)
  413. Format                                   : PGS
  414. Muxing mode                              : zlib
  415. Codec ID                                 : S_HDMV/PGS
  416. Codec ID/Info                            : Picture based subtitle format used on BDs/HD-DVDs
  417. Duration                                 : 1 h 36 min
  418. Bit rate                                 : 10.4 kb/s
  419. Count of elements                        : 910
  420. Stream size                              : 7.16 MiB (0%)
  421. Language                                 : Malay
  422. Default                                  : No
  423. Forced                                   : No
  424. Original source medium                   : Blu-ray

  425. Text #11
  426. ID                                       : 23
  427. ID in the original source medium         : 4777 (0x12A9)
  428. Format                                   : PGS
  429. Muxing mode                              : zlib
  430. Codec ID                                 : S_HDMV/PGS
  431. Codec ID/Info                            : Picture based subtitle format used on BDs/HD-DVDs
  432. Duration                                 : 1 h 36 min
  433. Bit rate                                 : 9 196 b/s
  434. Count of elements                        : 890
  435. Stream size                              : 6.33 MiB (0%)
  436. Language                                 : Portuguese
  437. Default                                  : No
  438. Forced                                   : No
  439. Original source medium                   : Blu-ray

  440. Text #12
  441. ID                                       : 24
  442. ID in the original source medium         : 4777 (0x12A9)
  443. Format                                   : PGS
  444. Muxing mode                              : zlib
  445. Codec ID                                 : S_HDMV/PGS
  446. Codec ID/Info                            : Picture based subtitle format used on BDs/HD-DVDs
  447. Duration                                 : 1 h 36 min
  448. Bit rate                                 : 85 b/s
  449. Count of elements                        : 8
  450. Stream size                              : 60.0 KiB (0%)
  451. Language                                 : Portuguese
  452. Default                                  : No
  453. Forced                                   : No
  454. Original source medium                   : Blu-ray

  455. Text #13
  456. ID                                       : 25
  457. ID in the original source medium         : 4778 (0x12AA)
  458. Format                                   : PGS
  459. Muxing mode                              : zlib
  460. Codec ID                                 : S_HDMV/PGS
  461. Codec ID/Info                            : Picture based subtitle format used on BDs/HD-DVDs
  462. Duration                                 : 1 h 36 min
  463. Bit rate                                 : 9 040 b/s
  464. Count of elements                        : 896
  465. Stream size                              : 6.22 MiB (0%)
  466. Language                                 : Spanish
  467. Default                                  : No
  468. Forced                                   : No
  469. Original source medium                   : Blu-ray

  470. Text #14
  471. ID                                       : 26
  472. ID in the original source medium         : 4778 (0x12AA)
  473. Format                                   : PGS
  474. Muxing mode                              : zlib
  475. Codec ID                                 : S_HDMV/PGS
  476. Codec ID/Info                            : Picture based subtitle format used on BDs/HD-DVDs
  477. Duration                                 : 1 h 36 min
  478. Bit rate                                 : 55 b/s
  479. Count of elements                        : 4
  480. Stream size                              : 38.8 KiB (0%)
  481. Language                                 : Spanish
  482. Default                                  : No
  483. Forced                                   : No
  484. Original source medium                   : Blu-ray

  485. Text #15
  486. ID                                       : 27
  487. ID in the original source medium         : 4779 (0x12AB)
  488. Format                                   : PGS
  489. Muxing mode                              : zlib
  490. Codec ID                                 : S_HDMV/PGS
  491. Codec ID/Info                            : Picture based subtitle format used on BDs/HD-DVDs
  492. Duration                                 : 1 h 36 min
  493. Bit rate                                 : 8 157 b/s
  494. Count of elements                        : 914
  495. Stream size                              : 5.62 MiB (0%)
  496. Language                                 : Thai
  497. Default                                  : No
  498. Forced                                   : No
  499. Original source medium                   : Blu-ray

  500. Text #16
  501. ID                                       : 28
  502. ID in the original source medium         : 4780 (0x12AC)
  503. Format                                   : PGS
  504. Muxing mode                              : zlib
  505. Codec ID                                 : S_HDMV/PGS
  506. Codec ID/Info                            : Picture based subtitle format used on BDs/HD-DVDs
  507. Duration                                 : 1 h 36 min
  508. Bit rate                                 : 71 b/s
  509. Count of elements                        : 6
  510. Stream size                              : 50.6 KiB (0%)
  511. Language                                 : French
  512. Default                                  : No
  513. Forced                                   : No
  514. Original source medium                   : Blu-ray

  515. Text #17
  516. ID                                       : 29
  517. ID in the original source medium         : 4780 (0x12AC)
  518. Format                                   : PGS
  519. Muxing mode                              : zlib
  520. Codec ID                                 : S_HDMV/PGS
  521. Codec ID/Info                            : Picture based subtitle format used on BDs/HD-DVDs
  522. Duration                                 : 1 h 36 min
  523. Bit rate                                 : 71 b/s
  524. Count of elements                        : 6
  525. Stream size                              : 50.6 KiB (0%)
  526. Language                                 : French
  527. Default                                  : No
  528. Forced                                   : No
  529. Original source medium                   : Blu-ray

  530. Text #18
  531. ID                                       : 30
  532. ID in the original source medium         : 4781 (0x12AD)
  533. Format                                   : PGS
  534. Muxing mode                              : zlib
  535. Codec ID                                 : S_HDMV/PGS
  536. Codec ID/Info                            : Picture based subtitle format used on BDs/HD-DVDs
  537. Duration                                 : 1 h 31 min
  538. Bit rate                                 : 37.5 kb/s
  539. Count of elements                        : 2317
  540. Stream size                              : 24.6 MiB (0%)
  541. Title                                    : COMMENTARY
  542. Language                                 : English
  543. Default                                  : No
  544. Forced                                   : No
  545. Original source medium                   : Blu-ray

  546. Text #19
  547. ID                                       : 31
  548. ID in the original source medium         : 4782 (0x12AE)
  549. Format                                   : PGS
  550. Muxing mode                              : zlib
  551. Codec ID                                 : S_HDMV/PGS
  552. Codec ID/Info                            : Picture based subtitle format used on BDs/HD-DVDs
  553. Duration                                 : 1 h 31 min
  554. Bit rate                                 : 28.7 kb/s
  555. Count of elements                        : 2050
  556. Stream size                              : 18.8 MiB (0%)
  557. Title                                    : COMMENTARY
  558. Language                                 : Chinese
  559. Default                                  : No
  560. Forced                                   : No
  561. Original source medium                   : Blu-ray

  562. Text #20
  563. ID                                       : 32
  564. ID in the original source medium         : 4783 (0x12AF)
  565. Format                                   : PGS
  566. Muxing mode                              : zlib
  567. Codec ID                                 : S_HDMV/PGS
  568. Codec ID/Info                            : Picture based subtitle format used on BDs/HD-DVDs
  569. Duration                                 : 1 h 31 min
  570. Bit rate                                 : 26.3 kb/s
  571. Count of elements                        : 2050
  572. Stream size                              : 17.2 MiB (0%)
  573. Title                                    : COMMENTARY
  574. Language                                 : Korean
  575. Default                                  : No
  576. Forced                                   : No
  577. Original source medium                   : Blu-ray

  578. Text #21
  579. ID                                       : 33
  580. ID in the original source medium         : 4784 (0x12B0)
  581. Format                                   : PGS
  582. Muxing mode                              : zlib
  583. Codec ID                                 : S_HDMV/PGS
  584. Codec ID/Info                            : Picture based subtitle format used on BDs/HD-DVDs
  585. Duration                                 : 1 h 31 min
  586. Bit rate                                 : 32.5 kb/s
  587. Count of elements                        : 1980
  588. Stream size                              : 21.3 MiB (0%)
  589. Title                                    : COMMENTARY
  590. Language                                 : Portuguese
  591. Default                                  : No
  592. Forced                                   : No
  593. Original source medium                   : Blu-ray

  594. Text #22
  595. ID                                       : 34
  596. ID in the original source medium         : 4785 (0x12B1)
  597. Format                                   : PGS
  598. Muxing mode                              : zlib
  599. Codec ID                                 : S_HDMV/PGS
  600. Codec ID/Info                            : Picture based subtitle format used on BDs/HD-DVDs
  601. Duration                                 : 1 h 31 min
  602. Bit rate                                 : 32.4 kb/s
  603. Count of elements                        : 2034
  604. Stream size                              : 21.2 MiB (0%)
  605. Title                                    : COMMENTARY
  606. Language                                 : Spanish
  607. Default                                  : No
  608. Forced                                   : No
  609. Original source medium                   : Blu-ray

  610. Text #23
  611. ID                                       : 35
  612. ID in the original source medium         : 4786 (0x12B2)
  613. Format                                   : PGS
  614. Muxing mode                              : zlib
  615. Codec ID                                 : S_HDMV/PGS
  616. Codec ID/Info                            : Picture based subtitle format used on BDs/HD-DVDs
  617. Duration                                 : 1 h 31 min
  618. Bit rate                                 : 32.8 kb/s
  619. Count of elements                        : 2050
  620. Stream size                              : 21.5 MiB (0%)
  621. Title                                    : COMMENTARY
  622. Language                                 : Thai
  623. Default                                  : No
  624. Forced                                   : No
  625. Original source medium                   : Blu-ray

  626. Text #24
  627. ID                                       : 36
  628. ID in the original source medium         : 4787 (0x12B3)
  629. Format                                   : PGS
  630. Muxing mode                              : zlib
  631. Codec ID                                 : S_HDMV/PGS
  632. Codec ID/Info                            : Picture based subtitle format used on BDs/HD-DVDs
  633. Duration                                 : 1 h 31 min
  634. Bit rate                                 : 66.3 kb/s
  635. Count of elements                        : 3264
  636. Stream size                              : 43.3 MiB (0%)
  637. Title                                    : COMMENTARY
  638. Language                                 : English
  639. Default                                  : No
  640. Forced                                   : No
  641. Original source medium                   : Blu-ray

  642. Text #25
  643. ID                                       : 37
  644. ID in the original source medium         : 4788 (0x12B4)
  645. Format                                   : PGS
  646. Muxing mode                              : zlib
  647. Codec ID                                 : S_HDMV/PGS
  648. Codec ID/Info                            : Picture based subtitle format used on BDs/HD-DVDs
  649. Duration                                 : 1 h 30 min
  650. Bit rate                                 : 50.1 kb/s
  651. Count of elements                        : 3190
  652. Stream size                              : 32.6 MiB (0%)
  653. Title                                    : COMMENTARY
  654. Language                                 : Chinese
  655. Default                                  : No
  656. Forced                                   : No
  657. Original source medium                   : Blu-ray

  658. Text #26
  659. ID                                       : 38
  660. ID in the original source medium         : 4789 (0x12B5)
  661. Format                                   : PGS
  662. Muxing mode                              : zlib
  663. Codec ID                                 : S_HDMV/PGS
  664. Codec ID/Info                            : Picture based subtitle format used on BDs/HD-DVDs
  665. Duration                                 : 1 h 30 min
  666. Bit rate                                 : 46.1 kb/s
  667. Count of elements                        : 3190
  668. Stream size                              : 29.9 MiB (0%)
  669. Title                                    : COMMENTARY
  670. Language                                 : Korean
  671. Default                                  : No
  672. Forced                                   : No
  673. Original source medium                   : Blu-ray

  674. Text #27
  675. ID                                       : 39
  676. ID in the original source medium         : 4790 (0x12B6)
  677. Format                                   : PGS
  678. Muxing mode                              : zlib
  679. Codec ID                                 : S_HDMV/PGS
  680. Codec ID/Info                            : Picture based subtitle format used on BDs/HD-DVDs
  681. Duration                                 : 1 h 30 min
  682. Bit rate                                 : 53.2 kb/s
  683. Count of elements                        : 3105
  684. Stream size                              : 34.6 MiB (0%)
  685. Title                                    : COMMENTARY
  686. Language                                 : Portuguese
  687. Default                                  : No
  688. Forced                                   : No
  689. Original source medium                   : Blu-ray

  690. Text #28
  691. ID                                       : 40
  692. ID in the original source medium         : 4791 (0x12B7)
  693. Format                                   : PGS
  694. Muxing mode                              : zlib
  695. Codec ID                                 : S_HDMV/PGS
  696. Codec ID/Info                            : Picture based subtitle format used on BDs/HD-DVDs
  697. Duration                                 : 1 h 30 min
  698. Bit rate                                 : 55.5 kb/s
  699. Count of elements                        : 3190
  700. Stream size                              : 36.0 MiB (0%)
  701. Title                                    : COMMENTARY
  702. Language                                 : Thai
  703. Default                                  : No
  704. Forced                                   : No
  705. Original source medium                   : Blu-ray

  706. Menu
  707. 00:00:00.000                             : en:Chapter 01
  708. 00:04:06.037                             : en:Chapter 02
  709. 00:08:39.477                             : en:Chapter 03
  710. 00:13:10.539                             : en:Chapter 04
  711. 00:19:12.776                             : en:Chapter 05
  712. 00:24:10.449                             : en:Chapter 06
  713. 00:28:03.890                             : en:Chapter 07
  714. 00:31:33.933                             : en:Chapter 08
  715. 00:37:14.774                             : en:Chapter 09
  716. 00:41:25.941                             : en:Chapter 10
  717. 00:45:21.593                             : en:Chapter 11
  718. 00:50:37.242                             : en:Chapter 12
  719. 00:55:42.630                             : en:Chapter 13
  720. 01:02:19.861                             : en:Chapter 14
  721. 01:09:26.245                             : en:Chapter 15
  722. 01:18:19.319                             : en:Chapter 16
复制代码




                                       
                                       

                                       
                                       
                                       




回复

使用道具 举报

蓝光币
70
发表于 2021-10-26 11:46:41 | 显示全部楼层

感谢楼主的无私分享!要想蓝光电影网好 就靠你我他
回复 支持 反对

使用道具 举报

蓝光币
16
发表于 2021-10-26 12:16:09 | 显示全部楼层
楼主发贴辛苦了,谢谢楼主分享!我觉得蓝光电影网是注册对了!
回复 支持 反对

使用道具 举报

懒得打字嘛,点击右侧快捷回复 【右侧内容,后台自定义】
您需要登录后才可以回帖 登录 | 立即加入

本版积分规则

Archiver|小黑屋| 蓝光电影网 |网站地图

Copyright © 2021 Comsenz Inc. Powered by 蓝光电影网

蓝光电影网

本站内容由用户自主分享和转载自互联网,转载目的在于传递更多信息,并不代表本网赞同其观点和对其真实性负责。

如有侵权、违反国家法律政策行为,请联系我们,我们会第一时间及时清除和处理!

举报反馈邮箱:[email protected]

快速回复 返回顶部 返回列表