找回密码

蓝光电影网

查看: 403|回复: 1

[10bit.SDR] 人之怒 Wrath.of.Man.2021.2160p.BluRay.x265.10bit.SDR.DTS-HD.MA.7.1-SWTYBLZ 28.67GB

[复制链接]
蓝光币
733
发表于 2021-10-26 09:51:36 | 显示全部楼层 |阅读模式


◎译  名 人之怒/Cash Truck/玩命钞劫(台)/运钞车
◎片  名 Wrath of Man
◎年  代 2021
◎产  地 美国,英国
◎类  别 行动 / 犯罪
◎语  言 英语
◎上映日期 2021-04-22(俄罗斯) / 2021-05-07(美国) / 2021-05-10(中国大陆)
◎豆瓣评分 6.7/10 from 126691 users
◎豆瓣链接 https://movie.douban.com/subject/27046740/
◎片  长 118分钟
◎导  演 盖·里奇 Guy Ritchie
◎编  剧 尼古拉斯·布赫里夫 Nicolas Boukhrief / 艾瑞克·贝斯纳 éric Besnard / 盖·里奇 Guy Ritchie / 马恩·戴维斯 Marn Davies / 伊凡·阿特金森 Ivan Atkinson
◎主  演 杰森·斯坦森 Jason Statham
       霍特·麦克卡兰尼 Holt McCallany
       罗奇·威廉姆斯 Rocci Williams
       乔什·哈奈特 Josh Hartnett
       杰弗里·多诺万 Jeffrey Donovan
       斯科特·伊斯特伍德 Scott Eastwood
       安迪·加西亚 Andy Garcia
       道比·欧帕瑞 Deobia Oparei
       拉兹·阿隆索 Laz Alonso
       劳尔·卡斯提洛 Raúl Castillo
       克里斯·雷利 Chris Reilly
       埃迪·马森 Eddie Marsan
       尼芙·阿尔格 Niamh Algar
       塔格·墨菲 Tadhg Murphy
       马克·阿诺德 Mark Arnold
       杰拉尔德·泰勒 Gerald Tyler
       亚历克斯·费恩斯 Alex Ferns
       乔什·柯德雷 Josh Cowdery
       杰森·王 Jason Wong
       罗伯·德兰尼 Rob Delaney
       伊莱·布朗 Eli Brown
       凯瑞·莎勒 Kerry Shale
       卡梅伦·杰克 Cameron Jack
       达雷尔·席尔瓦 Darrell D'Silva
       巴布斯·奥卢桑莫昆 Babs Olusanmokun
       多米尼克·托马斯 Dominique Thomas
       琳·勒内 Lyne Renee
       蕾贝卡·卡尔德 Rebecca Calder
       伊芙·麦凯林 Eve Macklin
       詹姆斯·沃伦 James Warren
       波兹·马龙 Post Malone
       史蒂威·戴维斯 Stevee Davies
       蒙塔娜·曼宁 Montana Manning
       安东尼·莫利纳利 Anthony Molinari
◎标  签 犯罪 | 行动 | 美国 | 2021 | 剧情 | 悬疑 | 英国 | 黑色诙谐
◎简  介


  在一次全部武装的运钞车劫案中,梅斯师长(杰森·斯坦森 饰)的儿子作为案发目击者被劫匪杀戮。拊膺切齿的梅斯为报丧子之仇,化身H卧底成为运钞车安保,试图找出杀戮他儿子的劫匪以及与劫匪黑暗勾结的安保公司内鬼。
  1. Video
  2. ID                                       : 1
  3. Format                                   : HEVC
  4. Format/Info                              : High Efficiency Video Coding
  5. Format profile                           : Main [email protected]@High
  6. Codec ID                                 : V_MPEGH/ISO/HEVC
  7. Duration                                 : 1 h 58 min
  8. Bit rate                                 : 28.8 Mb/s
  9. Width                                    : 3 840 pixels
  10. Height                                   : 1 606 pixels
  11. Display aspect ratio                     : 2.40:1
  12. Frame rate mode                          : Constant
  13. Frame rate                               : 24.000 FPS
  14. Color space                              : YUV
  15. Chroma subsampling                       : 4:2:0
  16. Bit depth                                : 10 bits
  17. Bits/(Pixel*Frame)                       : 0.195
  18. Stream size                              : 23.9 GiB (84%)
  19. Writing library                          : x265 3.0ed72af837053:[Windows][GCC 8.2.0][64 bit] 10bit
  20. Encoding settings                        : cpuid=1111039 / frame-threads=6 / numa-pools=40 / wpp / no-pmode / no-pme / no-psnr / no-ssim / log-level=2 / input-csp=1 / input-res=3840x1606 / interlace=0 / total-frames=170507 / level-idc=51 / high-tier=1 / uhd-bd=0 / ref=3 / no-allow-non-conformance / repeat-headers / annexb / aud / hrd / info / hash=0 / no-temporal-layers / no-open-gop / min-keyint=1 / keyint=24 / gop-lookahead=0 / bframes=4 / b-adapt=2 / b-pyramid / bframe-bias=0 / rc-lookahead=25 / lookahead-slices=4 / scenecut=40 / radl=0 / no-splice / no-intra-refresh / ctu=64 / min-cu-size=8 / no-rect / no-amp / max-tu-size=32 / tu-inter-depth=1 / tu-intra-depth=1 / limit-tu=0 / rdoq-level=0 / dynamic-rd=0.00 / no-ssim-rd / signhide / no-tskip / nr-intra=0 / nr-inter=0 / no-constrained-intra / strong-intra-smoothing / max-merge=2 / limit-refs=3 / no-limit-modes / me=1 / subme=2 / merange=57 / temporal-mvp / weightp / no-weightb / no-analyze-src-pics / deblock=0:0 / no-sao / no-sao-non-deblock / rd=3 / no-early-skip / rskip / no-fast-intra / no-tskip-fast / no-cu-lossless / no-b-intra / no-splitrd-skip / rdpenalty=0 / psy-rd=2.00 / psy-rdoq=0.00 / no-rd-refine / no-lossless / cbqpoffs=0 / crqpoffs=0 / rc=crf / crf=16.0 / qcomp=0.60 / qpstep=4 / stats-write=0 / stats-read=0 / vbv-maxrate=160000 / vbv-bufsize=160000 / vbv-init=0.9 / crf-max=0.0 / crf-min=0.0 / ipratio=1.40 / pbratio=1.30 / aq-mode=1 / aq-strength=1.00 / cutree / zone-count=0 / no-strict-cbr / qg-size=32 / no-rc-grain / qpmax=69 / qpmin=0 / no-const-vbv / sar=1 / overscan=0 / videoformat=5 / range=0 / colorprim=2 / transfer=2 / colormatrix=2 / chromaloc=0 / display-window=0 / max-cll=0,0 / min-luma=0 / max-luma=1023 / log2-max-poc-lsb=8 / vui-timing-info / vui-hrd-info / slices=1 / opt-qp-pps / opt-ref-list-length-pps / no-multi-pass-opt-rps / scenecut-bias=0.05 / no-opt-cu-delta-qp / no-aq-motion / no-hdr / no-hdr-opt / no-dhdr10-opt / no-idr-recovery-sei / analysis-reuse-level=5 / scale-factor=0 / refine-intra=0 / refine-inter=0 / refine-mv=0 / refine-ctu-distortion=0 / no-limit-sao / ctu-info=0 / no-lowpass-dct / refine-analysis-type=0 / copy-pic=1 / max-ausize-factor=1.0 / no-dynamic-refine / no-single-sei / no-hevc-aq / qp-adaptation-range=1.00
  21. Default                                  : Yes
  22. Forced                                   : No

  23. Audio #1
  24. ID                                       : 2
  25. ID in the original source medium         : 4353 (0x1101)
  26. Format                                   : DTS XLL
  27. Format/Info                              : Digital Theater Systems
  28. Commercial name                          : DTS-HD Master Audio
  29. Codec ID                                 : A_DTS
  30. Duration                                 : 1 h 58 min
  31. Bit rate mode                            : Variable
  32. Bit rate                                 : 4 934 kb/s
  33. Channel(s)                               : 8 channels
  34. Channel layout                           : C L R LFE Lb Rb Lss Rss
  35. Sampling rate                            : 48.0 kHz
  36. Frame rate                               : 93.750 FPS (512 SPF)
  37. Bit depth                                : 24 bits
  38. Compression mode                         : Lossless
  39. Stream size                              : 4.08 GiB (14%)
  40. Title                                    : DTS-HD MA 7.1
  41. Language                                 : English
  42. Default                                  : Yes
  43. Forced                                   : No
  44. Original source medium                   : Blu-ray

  45. Audio #2
  46. ID                                       : 3
  47. Format                                   : AC-3
  48. Format/Info                              : Audio Coding 3
  49. Commercial name                          : Dolby Digital
  50. Codec ID                                 : A_AC3
  51. Duration                                 : 1 h 58 min
  52. Bit rate mode                            : Constant
  53. Bit rate                                 : 640 kb/s
  54. Channel(s)                               : 6 channels
  55. Channel layout                           : L R C LFE Ls Rs
  56. Sampling rate                            : 48.0 kHz
  57. Frame rate                               : 31.250 FPS (1536 SPF)
  58. Compression mode                         : Lossy
  59. Stream size                              : 542 MiB (2%)
  60. Title                                    : DD 5.1
  61. Language                                 : English
  62. Service kind                             : Complete Main
  63. Default                                  : No
  64. Forced                                   : No

  65. Text #1
  66. ID                                       : 4
  67. Format                                   : UTF-8
  68. Codec ID                                 : S_TEXT/UTF8
  69. Codec ID/Info                            : UTF-8 Plain Text
  70. Duration                                 : 1 h 50 min
  71. Bit rate                                 : 55 b/s
  72. Count of elements                        : 1402
  73. Stream size                              : 45.3 KiB (0%)
  74. Title                                    : SRT
  75. Language                                 : English
  76. Default                                  : Yes
  77. Forced                                   : No

  78. Text #2
  79. ID                                       : 5
  80. ID in the original source medium         : 4769 (0x12A1)
  81. Format                                   : PGS
  82. Muxing mode                              : zlib
  83. Codec ID                                 : S_HDMV/PGS
  84. Codec ID/Info                            : Picture based subtitle format used on BDs/HD-DVDs
  85. Duration                                 : 1 h 57 min
  86. Bit rate                                 : 22.7 kb/s
  87. Count of elements                        : 2982
  88. Stream size                              : 19.1 MiB (0%)
  89. Language                                 : French
  90. Default                                  : No
  91. Forced                                   : No
  92. Original source medium                   : Blu-ray

  93. Text #3
  94. ID                                       : 6
  95. ID in the original source medium         : 4770 (0x12A2)
  96. Format                                   : PGS
  97. Muxing mode                              : zlib
  98. Codec ID                                 : S_HDMV/PGS
  99. Codec ID/Info                            : Picture based subtitle format used on BDs/HD-DVDs
  100. Duration                                 : 1 h 58 min
  101. Bit rate                                 : 29.6 kb/s
  102. Count of elements                        : 4104
  103. Stream size                              : 25.0 MiB (0%)
  104. Title                                    : SDH
  105. Language                                 : French
  106. Default                                  : No
  107. Forced                                   : No
  108. Original source medium                   : Blu-ray

  109. Menu
  110. 00:00:00.000                             : en:Chapter 01
  111. 00:05:38.750                             : en:Chapter 02
  112. 00:12:51.083                             : en:Chapter 03
  113. 00:19:34.333                             : en:Chapter 04
  114. 00:25:38.541                             : en:Chapter 05
  115. 00:31:49.208                             : en:Chapter 06
  116. 00:38:14.916                             : en:Chapter 07
  117. 00:47:14.833                             : en:Chapter 08
  118. 01:02:21.208                             : en:Chapter 09
  119. 01:10:15.750                             : en:Chapter 10
  120. 01:17:16.291                             : en:Chapter 11
  121. 01:24:52.333                             : en:Chapter 12
  122. 01:31:42.083                             : en:Chapter 13
  123. 01:40:03.416                             : en:Chapter 14
  124. 01:46:51.333                             : en:Chapter 15
  125. 01:52:40.625                             : en:Chapter 16
复制代码












                                       
                                       

                                       
                                       
                                       




回复

使用道具 举报

蓝光币
3
发表于 2021-10-26 11:01:57 | 显示全部楼层
楼主发贴辛苦了,谢谢楼主分享!我觉得蓝光电影网是注册对了!
回复 支持 反对

使用道具 举报

懒得打字嘛,点击右侧快捷回复 【右侧内容,后台自定义】
您需要登录后才可以回帖 登录 | 立即加入

本版积分规则

Archiver|小黑屋| 蓝光电影网 |网站地图

Copyright © 2021 Comsenz Inc. Powered by 蓝光电影网

蓝光电影网

本站内容由用户自主分享和转载自互联网,转载目的在于传递更多信息,并不代表本网赞同其观点和对其真实性负责。

如有侵权、违反国家法律政策行为,请联系我们,我们会第一时间及时清除和处理!

举报反馈邮箱:[email protected]

快速回复 返回顶部 返回列表