找回密码

蓝光电影网

查看: 268|回复: 0

[10bit.HDR] 人之怒 Wrath.of.Man.2021.2160p.UHD.BluRay.x265.10bit.HDR.DTS-HD.MA.7.1-TATANE 20.84GB

[复制链接]
蓝光币
733
发表于 2021-10-26 09:51:08 | 显示全部楼层 |阅读模式


◎译  名 人之怒/Cash Truck/玩命钞劫(台)/运钞车
◎片  名 Wrath of Man
◎年  代 2021
◎产  地 美国,英国
◎类  别 行动 / 犯罪
◎语  言 英语
◎上映日期 2021-04-22(俄罗斯) / 2021-05-07(美国) / 2021-05-10(中国大陆)
◎豆瓣评分 6.7/10 from 126691 users
◎豆瓣链接 https://movie.douban.com/subject/27046740/
◎片  长 118分钟
◎导  演 盖·里奇 Guy Ritchie
◎编  剧 尼古拉斯·布赫里夫 Nicolas Boukhrief / 艾瑞克·贝斯纳 éric Besnard / 盖·里奇 Guy Ritchie / 马恩·戴维斯 Marn Davies / 伊凡·阿特金森 Ivan Atkinson
◎主  演 杰森·斯坦森 Jason Statham
       霍特·麦克卡兰尼 Holt McCallany
       罗奇·威廉姆斯 Rocci Williams
       乔什·哈奈特 Josh Hartnett
       杰弗里·多诺万 Jeffrey Donovan
       斯科特·伊斯特伍德 Scott Eastwood
       安迪·加西亚 Andy Garcia
       道比·欧帕瑞 Deobia Oparei
       拉兹·阿隆索 Laz Alonso
       劳尔·卡斯提洛 Raúl Castillo
       克里斯·雷利 Chris Reilly
       埃迪·马森 Eddie Marsan
       尼芙·阿尔格 Niamh Algar
       塔格·墨菲 Tadhg Murphy
       马克·阿诺德 Mark Arnold
       杰拉尔德·泰勒 Gerald Tyler
       亚历克斯·费恩斯 Alex Ferns
       乔什·柯德雷 Josh Cowdery
       杰森·王 Jason Wong
       罗伯·德兰尼 Rob Delaney
       伊莱·布朗 Eli Brown
       凯瑞·莎勒 Kerry Shale
       卡梅伦·杰克 Cameron Jack
       达雷尔·席尔瓦 Darrell D'Silva
       巴布斯·奥卢桑莫昆 Babs Olusanmokun
       多米尼克·托马斯 Dominique Thomas
       琳·勒内 Lyne Renee
       蕾贝卡·卡尔德 Rebecca Calder
       伊芙·麦凯林 Eve Macklin
       詹姆斯·沃伦 James Warren
       波兹·马龙 Post Malone
       史蒂威·戴维斯 Stevee Davies
       蒙塔娜·曼宁 Montana Manning
       安东尼·莫利纳利 Anthony Molinari
◎标  签 犯罪 | 行动 | 美国 | 2021 | 剧情 | 悬疑 | 英国 | 黑色诙谐
◎简  介


  在一次全部武装的运钞车劫案中,梅斯师长(杰森·斯坦森 饰)的儿子作为案发目击者被劫匪杀戮。拊膺切齿的梅斯为报丧子之仇,化身H卧底成为运钞车安保,试图找出杀戮他儿子的劫匪以及与劫匪黑暗勾结的安保公司内鬼。
  1. Video
  2. ID : 1
  3. Format : HEVC
  4. Format/Info : High Efficiency Video Coding
  5. Format profile : Main [email protected]@High
  6. HDR format : SMPTE ST 2086, HDR10 compatible
  7. Codec ID : V_MPEGH/ISO/HEVC
  8. Duration : 1 h 58 min
  9. Bit rate : 20.1 Mb/s
  10. Width : 3 840 pixels
  11. Height : 1 608 pixels
  12. Display aspect ratio : 2.40:1
  13. Frame rate mode : Constant
  14. Frame rate : 24.000 FPS
  15. Color space : YUV
  16. Chroma subsampling : 4:2:0 (Type 2)
  17. Bit depth : 10 bits
  18. Bits/(Pixel*Frame) : 0.136
  19. Stream size : 16.6 GiB (80%)
  20. Writing library : x265 3.5+13-4c6880de4:[Windows][MSVC 1929][64 bit] 10bit
  21. Encoding settings : cpuid=1111039 / frame-threads=5 / numa-pools=32 / wpp / no-pmode / no-pme / no-psnr / no-ssim / log-level=2 / input-csp=1 / input-res=3840x1608 / interlace=0 / total-frames=170507 / level-idc=51 / high-tier=1 / uhd-bd=0 / ref=4 / no-allow-non-conformance / repeat-headers / annexb / aud / no-eob / no-eos / hrd / info / hash=0 / no-temporal-layers / no-open-gop / min-keyint=24 / keyint=250 / gop-lookahead=0 / bframes=4 / b-adapt=2 / b-pyramid / bframe-bias=0 / rc-lookahead=25 / lookahead-slices=4 / scenecut=40 / no-hist-scenecut / radl=0 / no-splice / no-intra-refresh / ctu=64 / min-cu-size=8 / rect / no-amp / max-tu-size=32 / tu-inter-depth=1 / tu-intra-depth=1 / limit-tu=0 / rdoq-level=2 / dynamic-rd=0.00 / no-ssim-rd / signhide / no-tskip / nr-intra=0 / nr-inter=0 / no-constrained-intra / no-strong-intra-smoothing / max-merge=3 / limit-refs=3 / limit-modes / me=3 / subme=3 / merange=57 / temporal-mvp / no-frame-dup / no-hme / weightp / no-weightb / no-analyze-src-pics / deblock=-3:-3 / no-sao / no-sao-non-deblock / rd=4 / selective-sao=0 / no-early-skip / rskip / no-fast-intra / no-tskip-fast / no-cu-lossless / no-b-intra / no-splitrd-skip / rdpenalty=0 / psy-rd=2.00 / psy-rdoq=1.00 / no-rd-refine / no-lossless / cbqpoffs=0 / crqpoffs=0 / rc=crf / crf=13.0 / qcomp=0.60 / qpstep=4 / stats-write=0 / stats-read=0 / vbv-maxrate=160000 / vbv-bufsize=160000 / vbv-init=0.9 / min-vbv-fullness=50.0 / max-vbv-fullness=80.0 / crf-max=0.0 / crf-min=0.0 / ipratio=1.40 / pbratio=1.30 / aq-mode=2 / aq-strength=1.00 / cutree / zone-count=0 / no-strict-cbr / qg-size=32 / no-rc-grain / qpmax=69 / qpmin=0 / no-const-vbv / sar=1 / overscan=0 / videoformat=5 / range=0 / colorprim=9 / transfer=16 / colormatrix=9 / chromaloc=1 / chromaloc-top=2 / chromaloc-bottom=2 / display-window=0 / master-display=G(13250,34500)B(7500,3000)R(34000,16000)WP(15635,16450)L(10000000,50) / cll=832,166 / min-luma=0 / max-luma=1023 / log2-max-poc-lsb=8 / vui-timing-info / vui-hrd-info / slices=1 / no-opt-qp-pps / no-opt-ref-list-length-pps / no-multi-pass-opt-rps / scenecut-bias=0.05 / hist-threshold=0.03 / no-opt-cu-delta-qp / no-aq-motion / hdr10 / hdr10-opt / no-dhdr10-opt / no-idr-recovery-sei / analysis-reuse-level=0 / analysis-save-reuse-level=0 / analysis-load-reuse-level=0 / scale-factor=0 / refine-intra=0 / refine-inter=0 / refine-mv=1 / refine-ctu-distortion=0 / no-limit-sao / ctu-info=0 / no-lowpass-dct / refine-analysis-type=0 / copy-pic=1 / max-ausize-factor=1.0 / no-dynamic-refine / no-single-sei / no-hevc-aq / no-svt / no-field / qp-adaptation-range=1.00 / scenecut-aware-qp=0conformance-window-offsets / right=0 / bottom=0 / decoder-max-rate=0 / no-vbv-live-multi-pass
  22. Default : Yes
  23. Forced : No
  24. Color range : Limited
  25. Color primaries : BT.2020
  26. Transfer characteristics : PQ
  27. Matrix coefficients : BT.2020 non-constant
  28. Mastering display color primaries : Display P3
  29. Mastering display luminance : min: 0.0050 cd/m2, max: 1000 cd/m2
  30. Maximum Content Light Level : 832 cd/m2
  31. Maximum Frame-Average Light Level : 166 cd/m2

  32. Audio
  33. ID : 2
  34. Format : DTS XLL
  35. Format/Info : Digital Theater Systems
  36. Commercial name : DTS-HD Master Audio
  37. Codec ID : A_DTS
  38. Duration : 1 h 58 min
  39. Bit rate mode : Variable
  40. Bit rate : 4 934 kb/s
  41. Channel(s) : 8 channels
  42. Channel layout : C L R LFE Lb Rb Lss Rss
  43. Sampling rate : 48.0 kHz
  44. Frame rate : 93.750 FPS (512 SPF)
  45. Bit depth : 24 bits
  46. Compression mode : Lossless
  47. Stream size : 4.08 GiB (20%)
  48. Title : DTS-HD MA 7.1
  49. Language : English
  50. Default : Yes
  51. Forced : No

  52. Text
  53. ID : 3
  54. Format : PGS
  55. Muxing mode : zlib
  56. Codec ID : S_HDMV/PGS
  57. Codec ID/Info : Picture based subtitle format used on BDs/HD-DVDs
  58. Duration : 1 h 57 min
  59. Bit rate : 22.7 kb/s
  60. Count of elements : 2982
  61. Stream size : 19.1 MiB (0%)
  62. Title : French
  63. Language : French
  64. Default : No
  65. Forced : No

  66. Menu
  67. 00:00:00.000 : Chapter 01
  68. 00:05:38.625 : Chapter 02
  69. 00:12:51.333 : Chapter 03
  70. 00:19:34.667 : Chapter 04
  71. 00:25:38.083 : Chapter 05
  72. 00:31:49.208 : Chapter 06
  73. 00:38:14.917 : Chapter 07
  74. 00:47:14.833 : Chapter 08
  75. 01:02:21.542 : Chapter 09
  76. 01:10:15.875 : Chapter 10
  77. 01:17:16.292 : Chapter 11
  78. 01:24:52.667 : Chapter 12
  79. 01:31:42.250 : Chapter 13
  80. 01:40:03.417 : Chapter 14
  81. 01:46:51.667 : Chapter 15
  82. 01:52:40.875 : Chapter 16
复制代码




                                       
                                       

                                       
                                       
                                       





回复

使用道具 举报

懒得打字嘛,点击右侧快捷回复 【右侧内容,后台自定义】
您需要登录后才可以回帖 登录 | 立即加入

本版积分规则

Archiver|小黑屋| 蓝光电影网 |网站地图

Copyright © 2021 Comsenz Inc. Powered by 蓝光电影网

蓝光电影网

本站内容由用户自主分享和转载自互联网,转载目的在于传递更多信息,并不代表本网赞同其观点和对其真实性负责。

如有侵权、违反国家法律政策行为,请联系我们,我们会第一时间及时清除和处理!

举报反馈邮箱:[email protected]

快速回复 返回顶部 返回列表