找回密码

蓝光电影网

查看: 295|回复: 0

[REMUX.HEVC] 黑夜传说3:狼族崛起/决战异世界前传:鬼哭狼嚎 Underworld.Rise.of.the.Lycans.2009.2160p.BluRay.REMUX.HEVC.DTS-HD.MA.TrueHD.7.1.Atmos-FGT 56.15GB

[复制链接]
蓝光币
733
发表于 2021-10-26 10:42:19 | 显示全部楼层 |阅读模式


◎译  名 黑夜传闻3:狼族突起/决战异天下前传:鬼哭狼嚎(台)/妖夜寻狼前传之狼神诞生/妖夜寻狼前传之狼神诞生(港)/黑夜传闻前传:狼族复兴
◎片  名 Underworld: Rise of the Lycans
◎年  代 2009
◎产  地 美国,新西兰
◎类  别 行动 / 惊悚 / 奇异
◎语  言 英语
◎上映日期 2009-01-23(美国)
◎豆瓣评分 6.8/10 from 45252 users
◎豆瓣链接 https://movie.douban.com/subject/2132941/
◎片  长 92 分钟
◎导  演 帕特里克·塔特普洛斯 Patrick Tatopoulos
◎编  剧 丹尼·麦克布莱德 Danny McBride / 伦·怀斯曼 Len Wiseman / 凯文·格雷维奥斯 Kevin Grevioux / 德克·布莱克曼 Dirk Blackman / 霍华德·麦凯恩 Howard McCain
◎主  演 麦克·辛 Michael Sheen
       比尔·奈伊 Bill Nighy
       罗娜·迈特拉 Rhona Mitra
       斯蒂文·麦金托什 Steven Mackintosh
       凯文·格雷维奥斯 Kevin Grevioux
       伊丽莎白·霍桑 Elizabeth Hawthorne
       蒂莫西拉比 Timothy Raby
       贾里德·特纳 Jared Turner
       Kurt Carley Kurt Carley
       坦尼亚·诺兰 Tania Nolan
       克雷格·帕克 Craig Parker
       山恩·布罗利 Shane Brolly
       马克·米钦森 Mark Mitchinson
◎标  签 吸血鬼 | 魔幻 | 美国 | 狼人 | 行动 | 黑夜传闻 | 美国电影 | 2009
◎简  介


  悠远的黑暗世纪,柯文诺斯的子孙一分为二。血族在维多(比利·奈伊 Bill Nighy 饰)的带领下独行全国,强大的吸血兵团压制极具沾染性且没法进化成人的残暴狼族。直到某天,一个奇异的生命诞生,改变了这两个家属的命运。一只母狼诞下有着人类表面的狼人路西安(麦克·辛 Michael Sheen 饰),维多窥见狼人身材内的强大气力,因而对其大量滋生,并将狼人纳为办事血族的仆从。仆从的磨难永无终结,而在这一进程中路西安还冒全国之大不韪与维多的女儿桑雅(罗娜·迈特拉 Rhona Mitra 饰)偷偷相恋。
  
  渴望自在的路西安终极想法解开维多对自己的禁锢,狼人与血族延续数百年的战争亦由此拉开序幕……
  1. Video
  2. ID                                       : 1
  3. ID in the original source medium         : 4113 (0x1011)
  4. Format                                   : HEVC
  5. Format/Info                              : High Efficiency Video Coding
  6. Format profile                           : Main [email protected]@High
  7. HDR format                               : SMPTE ST 2086, HDR10 compatible
  8. Codec ID                                 : V_MPEGH/ISO/HEVC
  9. Duration                                 : 1 h 32 min
  10. Bit rate                                 : 63.6 Mb/s
  11. Width                                    : 3 840 pixels
  12. Height                                   : 2 160 pixels
  13. Display aspect ratio                     : 16:9
  14. Frame rate mode                          : Constant
  15. Frame rate                               : 23.976 (24000/1001/189150) FPS
  16. Color space                              : YUV
  17. Chroma subsampling                       : 4:2:0 (Type 2)
  18. Bit depth                                : 10 bits
  19. Bits/(Pixel*Frame)                       : 0.320
  20. Stream size                              : 41.1 GiB (73%)
  21. Language                                 : English
  22. Default                                  : No
  23. Forced                                   : No
  24. Color range                              : Limited
  25. Color primaries                          : BT.2020
  26. Transfer characteristics                 : PQ
  27. Matrix coefficients                      : BT.2020 non-constant
  28. Mastering display color primaries        : BT.2020
  29. Mastering display luminance              : min: 0.0001 cd/m2, max: 1000 cd/m2
  30. Maximum Content Light Level              : 997 cd/m2
  31. Maximum Frame-Average Light Level        : 483 cd/m2
  32. Original source medium                   : Blu-ray

  33. Audio #1
  34. ID                                       : 2
  35. ID in the original source medium         : 4352 (0x1100)
  36. Format                                   : MLP FBA 16-ch
  37. Format/Info                              : Meridian Lossless Packing FBA with 16-channel presentation
  38. Commercial name                          : Dolby TrueHD with Dolby Atmos
  39. Codec ID                                 : A_TRUEHD
  40. Duration                                 : 1 h 32 min
  41. Bit rate mode                            : Variable
  42. Bit rate                                 : 4 640 kb/s
  43. Maximum bit rate                         : 7 854 kb/s
  44. Channel(s)                               : 8 channels
  45. Channel layout                           : L R C LFE Ls Rs Lb Rb
  46. Sampling rate                            : 48.0 kHz
  47. Frame rate                               : 1 200.000 FPS (40 SPF)
  48. Bit depth                                : 24 bits
  49. Compression mode                         : Lossless
  50. Stream size                              : 3.00 GiB (5%)
  51. Title                                    : TrueHD 7.1 Atmos
  52. Language                                 : English
  53. Default                                  : Yes
  54. Forced                                   : No
  55. Original source medium                   : Blu-ray
  56. Number of dynamic objects                : 11
  57. Bed channel count                        : 1 channel
  58. Bed channel configuration                : LFE

  59. Audio #2
  60. ID                                       : 3
  61. Format                                   : DTS XLL
  62. Format/Info                              : Digital Theater Systems
  63. Commercial name                          : DTS-HD Master Audio
  64. Codec ID                                 : A_DTS
  65. Duration                                 : 1 h 32 min
  66. Bit rate mode                            : Variable
  67. Bit rate                                 : 4 200 kb/s
  68. Channel(s)                               : 8 channels
  69. Channel layout                           : C L R LFE Lb Rb Lss Rss
  70. Sampling rate                            : 48.0 kHz
  71. Frame rate                               : 93.750 FPS (512 SPF)
  72. Bit depth                                : 24 bits
  73. Compression mode                         : Lossless
  74. Stream size                              : 2.71 GiB (5%)
  75. Title                                    : DTS-HD MA 7.1
  76. Language                                 : English
  77. Default                                  : No
  78. Forced                                   : No

  79. Audio #3
  80. ID                                       : 4
  81. ID in the original source medium         : 4352 (0x1100)
  82. Format                                   : AC-3
  83. Format/Info                              : Audio Coding 3
  84. Commercial name                          : Dolby Digital
  85. Codec ID                                 : A_AC3
  86. Duration                                 : 1 h 32 min
  87. Bit rate mode                            : Constant
  88. Bit rate                                 : 640 kb/s
  89. Channel(s)                               : 6 channels
  90. Channel layout                           : L R C LFE Ls Rs
  91. Sampling rate                            : 48.0 kHz
  92. Frame rate                               : 31.250 FPS (1536 SPF)
  93. Compression mode                         : Lossy
  94. Stream size                              : 423 MiB (1%)
  95. Title                                    : DD 5.1
  96. Language                                 : English
  97. Service kind                             : Complete Main
  98. Default                                  : No
  99. Forced                                   : No
  100. Original source medium                   : Blu-ray

  101. Audio #4
  102. ID                                       : 5
  103. ID in the original source medium         : 4354 (0x1102)
  104. Format                                   : AC-3
  105. Format/Info                              : Audio Coding 3
  106. Commercial name                          : Dolby Digital
  107. Codec ID                                 : A_AC3
  108. Duration                                 : 1 h 32 min
  109. Bit rate mode                            : Constant
  110. Bit rate                                 : 448 kb/s
  111. Channel(s)                               : 6 channels
  112. Channel layout                           : L R C LFE Ls Rs
  113. Sampling rate                            : 48.0 kHz
  114. Frame rate                               : 31.250 FPS (1536 SPF)
  115. Compression mode                         : Lossy
  116. Stream size                              : 296 MiB (1%)
  117. Title                                    : DD 5.1
  118. Language                                 : Czech
  119. Service kind                             : Complete Main
  120. Default                                  : No
  121. Forced                                   : No
  122. Original source medium                   : Blu-ray

  123. Audio #5
  124. ID                                       : 6
  125. ID in the original source medium         : 4355 (0x1103)
  126. Format                                   : AC-3
  127. Format/Info                              : Audio Coding 3
  128. Commercial name                          : Dolby Digital
  129. Codec ID                                 : A_AC3
  130. Duration                                 : 1 h 32 min
  131. Bit rate mode                            : Constant
  132. Bit rate                                 : 448 kb/s
  133. Channel(s)                               : 6 channels
  134. Channel layout                           : L R C LFE Ls Rs
  135. Sampling rate                            : 48.0 kHz
  136. Frame rate                               : 31.250 FPS (1536 SPF)
  137. Compression mode                         : Lossy
  138. Stream size                              : 296 MiB (1%)
  139. Title                                    : DD 5.1
  140. Language                                 : French
  141. Service kind                             : Complete Main
  142. Default                                  : No
  143. Forced                                   : No
  144. Original source medium                   : Blu-ray

  145. Audio #6
  146. ID                                       : 7
  147. ID in the original source medium         : 4356 (0x1104)
  148. Format                                   : AC-3
  149. Format/Info                              : Audio Coding 3
  150. Commercial name                          : Dolby Digital
  151. Codec ID                                 : A_AC3
  152. Duration                                 : 1 h 32 min
  153. Bit rate mode                            : Constant
  154. Bit rate                                 : 448 kb/s
  155. Channel(s)                               : 6 channels
  156. Channel layout                           : L R C LFE Ls Rs
  157. Sampling rate                            : 48.0 kHz
  158. Frame rate                               : 31.250 FPS (1536 SPF)
  159. Compression mode                         : Lossy
  160. Stream size                              : 296 MiB (1%)
  161. Title                                    : DD 5.1
  162. Language                                 : French
  163. Service kind                             : Complete Main
  164. Default                                  : No
  165. Forced                                   : No
  166. Original source medium                   : Blu-ray

  167. Audio #7
  168. ID                                       : 8
  169. ID in the original source medium         : 4357 (0x1105)
  170. Format                                   : DTS XLL
  171. Format/Info                              : Digital Theater Systems
  172. Commercial name                          : DTS-HD Master Audio
  173. Codec ID                                 : A_DTS
  174. Duration                                 : 1 h 32 min
  175. Bit rate mode                            : Variable
  176. Bit rate                                 : 2 333 kb/s
  177. Channel(s)                               : 6 channels
  178. Channel layout                           : C L R Ls Rs LFE
  179. Sampling rate                            : 48.0 kHz
  180. Frame rate                               : 93.750 FPS (512 SPF)
  181. Bit depth                                : 16 bits
  182. Compression mode                         : Lossless
  183. Stream size                              : 1.51 GiB (3%)
  184. Title                                    : DTS-HD MA 5.1
  185. Language                                 : German
  186. Default                                  : No
  187. Forced                                   : No
  188. Original source medium                   : Blu-ray

  189. Audio #8
  190. ID                                       : 9
  191. ID in the original source medium         : 4358 (0x1106)
  192. Format                                   : AC-3
  193. Format/Info                              : Audio Coding 3
  194. Commercial name                          : Dolby Digital
  195. Codec ID                                 : A_AC3
  196. Duration                                 : 1 h 32 min
  197. Bit rate mode                            : Constant
  198. Bit rate                                 : 448 kb/s
  199. Channel(s)                               : 6 channels
  200. Channel layout                           : L R C LFE Ls Rs
  201. Sampling rate                            : 48.0 kHz
  202. Frame rate                               : 31.250 FPS (1536 SPF)
  203. Compression mode                         : Lossy
  204. Stream size                              : 296 MiB (1%)
  205. Title                                    : DD 5.1
  206. Language                                 : Hindi
  207. Service kind                             : Complete Main
  208. Default                                  : No
  209. Forced                                   : No
  210. Original source medium                   : Blu-ray

  211. Audio #9
  212. ID                                       : 10
  213. ID in the original source medium         : 4359 (0x1107)
  214. Format                                   : AC-3
  215. Format/Info                              : Audio Coding 3
  216. Commercial name                          : Dolby Digital
  217. Codec ID                                 : A_AC3
  218. Duration                                 : 1 h 32 min
  219. Bit rate mode                            : Constant
  220. Bit rate                                 : 448 kb/s
  221. Channel(s)                               : 6 channels
  222. Channel layout                           : L R C LFE Ls Rs
  223. Sampling rate                            : 48.0 kHz
  224. Frame rate                               : 31.250 FPS (1536 SPF)
  225. Compression mode                         : Lossy
  226. Stream size                              : 296 MiB (1%)
  227. Title                                    : DD 5.1
  228. Language                                 : Hungarian
  229. Service kind                             : Complete Main
  230. Default                                  : No
  231. Forced                                   : No
  232. Original source medium                   : Blu-ray

  233. Audio #10
  234. ID                                       : 11
  235. ID in the original source medium         : 4360 (0x1108)
  236. Format                                   : DTS XLL
  237. Format/Info                              : Digital Theater Systems
  238. Commercial name                          : DTS-HD Master Audio
  239. Codec ID                                 : A_DTS
  240. Duration                                 : 1 h 32 min
  241. Bit rate mode                            : Variable
  242. Bit rate                                 : 2 336 kb/s
  243. Channel(s)                               : 6 channels
  244. Channel layout                           : C L R Ls Rs LFE
  245. Sampling rate                            : 48.0 kHz
  246. Frame rate                               : 93.750 FPS (512 SPF)
  247. Bit depth                                : 16 bits
  248. Compression mode                         : Lossless
  249. Stream size                              : 1.51 GiB (3%)
  250. Title                                    : DTS-HD MA 5.1
  251. Language                                 : Italian
  252. Default                                  : No
  253. Forced                                   : No
  254. Original source medium                   : Blu-ray

  255. Audio #11
  256. ID                                       : 12
  257. ID in the original source medium         : 4361 (0x1109)
  258. Format                                   : DTS XLL
  259. Format/Info                              : Digital Theater Systems
  260. Commercial name                          : DTS-HD Master Audio
  261. Codec ID                                 : A_DTS
  262. Duration                                 : 1 h 32 min
  263. Bit rate mode                            : Variable
  264. Bit rate                                 : 2 317 kb/s
  265. Channel(s)                               : 6 channels
  266. Channel layout                           : C L R Ls Rs LFE
  267. Sampling rate                            : 48.0 kHz
  268. Frame rate                               : 93.750 FPS (512 SPF)
  269. Bit depth                                : 16 bits
  270. Compression mode                         : Lossless
  271. Stream size                              : 1.50 GiB (3%)
  272. Title                                    : DTS-HD MA 5.1
  273. Language                                 : Japanese
  274. Default                                  : No
  275. Forced                                   : No
  276. Original source medium                   : Blu-ray

  277. Audio #12
  278. ID                                       : 13
  279. ID in the original source medium         : 4362 (0x110A)
  280. Format                                   : AC-3
  281. Format/Info                              : Audio Coding 3
  282. Commercial name                          : Dolby Digital
  283. Codec ID                                 : A_AC3
  284. Duration                                 : 1 h 32 min
  285. Bit rate mode                            : Constant
  286. Bit rate                                 : 448 kb/s
  287. Channel(s)                               : 6 channels
  288. Channel layout                           : L R C LFE Ls Rs
  289. Sampling rate                            : 48.0 kHz
  290. Frame rate                               : 31.250 FPS (1536 SPF)
  291. Compression mode                         : Lossy
  292. Stream size                              : 296 MiB (1%)
  293. Title                                    : DD 5.1
  294. Language                                 : Polish
  295. Service kind                             : Complete Main
  296. Default                                  : No
  297. Forced                                   : No
  298. Original source medium                   : Blu-ray

  299. Audio #13
  300. ID                                       : 14
  301. ID in the original source medium         : 4363 (0x110B)
  302. Format                                   : AC-3
  303. Format/Info                              : Audio Coding 3
  304. Commercial name                          : Dolby Digital
  305. Codec ID                                 : A_AC3
  306. Duration                                 : 1 h 32 min
  307. Bit rate mode                            : Constant
  308. Bit rate                                 : 448 kb/s
  309. Channel(s)                               : 6 channels
  310. Channel layout                           : L R C LFE Ls Rs
  311. Sampling rate                            : 48.0 kHz
  312. Frame rate                               : 31.250 FPS (1536 SPF)
  313. Compression mode                         : Lossy
  314. Stream size                              : 296 MiB (1%)
  315. Title                                    : DD 5.1
  316. Language                                 : Russian
  317. Service kind                             : Complete Main
  318. Default                                  : No
  319. Forced                                   : No
  320. Original source medium                   : Blu-ray

  321. Audio #14
  322. ID                                       : 15
  323. ID in the original source medium         : 4364 (0x110C)
  324. Format                                   : DTS XLL
  325. Format/Info                              : Digital Theater Systems
  326. Commercial name                          : DTS-HD Master Audio
  327. Codec ID                                 : A_DTS
  328. Duration                                 : 1 h 32 min
  329. Bit rate mode                            : Variable
  330. Bit rate                                 : 2 336 kb/s
  331. Channel(s)                               : 6 channels
  332. Channel layout                           : C L R Ls Rs LFE
  333. Sampling rate                            : 48.0 kHz
  334. Frame rate                               : 93.750 FPS (512 SPF)
  335. Bit depth                                : 16 bits
  336. Compression mode                         : Lossless
  337. Stream size                              : 1.51 GiB (3%)
  338. Title                                    : DTS-HD MA 5.1
  339. Language                                 : Spanish
  340. Default                                  : No
  341. Forced                                   : No
  342. Original source medium                   : Blu-ray

  343. Audio #15
  344. ID                                       : 16
  345. ID in the original source medium         : 4365 (0x110D)
  346. Format                                   : AC-3
  347. Format/Info                              : Audio Coding 3
  348. Commercial name                          : Dolby Digital
  349. Codec ID                                 : A_AC3
  350. Duration                                 : 1 h 32 min
  351. Bit rate mode                            : Constant
  352. Bit rate                                 : 448 kb/s
  353. Channel(s)                               : 6 channels
  354. Channel layout                           : L R C LFE Ls Rs
  355. Sampling rate                            : 48.0 kHz
  356. Frame rate                               : 31.250 FPS (1536 SPF)
  357. Compression mode                         : Lossy
  358. Stream size                              : 296 MiB (1%)
  359. Title                                    : DD 5.1
  360. Language                                 : Spanish
  361. Service kind                             : Complete Main
  362. Default                                  : No
  363. Forced                                   : No
  364. Original source medium                   : Blu-ray

  365. Audio #16
  366. ID                                       : 17
  367. ID in the original source medium         : 4366 (0x110E)
  368. Format                                   : AC-3
  369. Format/Info                              : Audio Coding 3
  370. Commercial name                          : Dolby Digital
  371. Codec ID                                 : A_AC3
  372. Duration                                 : 1 h 32 min
  373. Bit rate mode                            : Constant
  374. Bit rate                                 : 448 kb/s
  375. Channel(s)                               : 6 channels
  376. Channel layout                           : L R C LFE Ls Rs
  377. Sampling rate                            : 48.0 kHz
  378. Frame rate                               : 31.250 FPS (1536 SPF)
  379. Compression mode                         : Lossy
  380. Stream size                              : 296 MiB (1%)
  381. Title                                    : DD 5.1
  382. Language                                 : Thai
  383. Service kind                             : Complete Main
  384. Default                                  : No
  385. Forced                                   : No
  386. Original source medium                   : Blu-ray

  387. Audio #17
  388. ID                                       : 18
  389. ID in the original source medium         : 4367 (0x110F)
  390. Format                                   : AC-3
  391. Format/Info                              : Audio Coding 3
  392. Commercial name                          : Dolby Digital
  393. Codec ID                                 : A_AC3
  394. Duration                                 : 1 h 32 min
  395. Bit rate mode                            : Constant
  396. Bit rate                                 : 192 kb/s
  397. Channel(s)                               : 2 channels
  398. Channel layout                           : L R
  399. Sampling rate                            : 48.0 kHz
  400. Frame rate                               : 31.250 FPS (1536 SPF)
  401. Compression mode                         : Lossy
  402. Stream size                              : 127 MiB (0%)
  403. Title                                    : DD 2.0
  404. Language                                 : Turkish
  405. Service kind                             : Complete Main
  406. Default                                  : No
  407. Forced                                   : No
  408. Original source medium                   : Blu-ray

  409. Text #1
  410. ID                                       : 19
  411. Format                                   : UTF-8
  412. Codec ID                                 : S_TEXT/UTF8
  413. Codec ID/Info                            : UTF-8 Plain Text
  414. Duration                                 : 1 h 30 min
  415. Bit rate                                 : 31 b/s
  416. Count of elements                        : 664
  417. Stream size                              : 20.9 KiB (0%)
  418. Title                                    : SRT
  419. Language                                 : English
  420. Default                                  : Yes
  421. Forced                                   : No

  422. Text #2
  423. ID                                       : 20
  424. ID in the original source medium         : 4768 (0x12A0)
  425. Format                                   : PGS
  426. Muxing mode                              : zlib
  427. Codec ID                                 : S_HDMV/PGS
  428. Codec ID/Info                            : Picture based subtitle format used on BDs/HD-DVDs
  429. Duration                                 : 1 h 31 min
  430. Bit rate                                 : 20.3 kb/s
  431. Count of elements                        : 1566
  432. Stream size                              : 13.3 MiB (0%)
  433. Title                                    : SDH
  434. Language                                 : English
  435. Default                                  : No
  436. Forced                                   : No
  437. Original source medium                   : Blu-ray

  438. Text #3
  439. ID                                       : 21
  440. ID in the original source medium         : 4769 (0x12A1)
  441. Format                                   : PGS
  442. Muxing mode                              : zlib
  443. Codec ID                                 : S_HDMV/PGS
  444. Codec ID/Info                            : Picture based subtitle format used on BDs/HD-DVDs
  445. Duration                                 : 1 h 22 min
  446. Bit rate                                 : 18.9 kb/s
  447. Count of elements                        : 1308
  448. Stream size                              : 11.1 MiB (0%)
  449. Language                                 : English
  450. Default                                  : No
  451. Forced                                   : No
  452. Original source medium                   : Blu-ray

  453. Text #4
  454. ID                                       : 22
  455. ID in the original source medium         : 4770 (0x12A2)
  456. Format                                   : PGS
  457. Muxing mode                              : zlib
  458. Codec ID                                 : S_HDMV/PGS
  459. Codec ID/Info                            : Picture based subtitle format used on BDs/HD-DVDs
  460. Duration                                 : 1 h 22 min
  461. Bit rate                                 : 9 619 b/s
  462. Count of elements                        : 1226
  463. Stream size                              : 5.66 MiB (0%)
  464. Language                                 : Arabic
  465. Default                                  : No
  466. Forced                                   : No
  467. Original source medium                   : Blu-ray

  468. Text #5
  469. ID                                       : 23
  470. ID in the original source medium         : 4771 (0x12A3)
  471. Format                                   : PGS
  472. Muxing mode                              : zlib
  473. Codec ID                                 : S_HDMV/PGS
  474. Codec ID/Info                            : Picture based subtitle format used on BDs/HD-DVDs
  475. Duration                                 : 1 h 22 min
  476. Bit rate                                 : 16.8 kb/s
  477. Count of elements                        : 1308
  478. Stream size                              : 9.88 MiB (0%)
  479. Language                                 : Chinese
  480. Default                                  : No
  481. Forced                                   : No
  482. Original source medium                   : Blu-ray

  483. Text #6
  484. ID                                       : 24
  485. ID in the original source medium         : 4772 (0x12A4)
  486. Format                                   : PGS
  487. Muxing mode                              : zlib
  488. Codec ID                                 : S_HDMV/PGS
  489. Codec ID/Info                            : Picture based subtitle format used on BDs/HD-DVDs
  490. Duration                                 : 1 h 22 min
  491. Bit rate                                 : 16.4 kb/s
  492. Count of elements                        : 1308
  493. Stream size                              : 9.64 MiB (0%)
  494. Language                                 : Chinese
  495. Default                                  : No
  496. Forced                                   : No
  497. Original source medium                   : Blu-ray

  498. Text #7
  499. ID                                       : 25
  500. ID in the original source medium         : 4773 (0x12A5)
  501. Format                                   : PGS
  502. Muxing mode                              : zlib
  503. Codec ID                                 : S_HDMV/PGS
  504. Codec ID/Info                            : Picture based subtitle format used on BDs/HD-DVDs
  505. Duration                                 : 1 h 31 min
  506. Bit rate                                 : 13.9 kb/s
  507. Count of elements                        : 1256
  508. Stream size                              : 9.09 MiB (0%)
  509. Language                                 : Czech
  510. Default                                  : No
  511. Forced                                   : No
  512. Original source medium                   : Blu-ray

  513. Text #8
  514. ID                                       : 26
  515. ID in the original source medium         : 4774 (0x12A6)
  516. Format                                   : PGS
  517. Muxing mode                              : zlib
  518. Codec ID                                 : S_HDMV/PGS
  519. Codec ID/Info                            : Picture based subtitle format used on BDs/HD-DVDs
  520. Duration                                 : 1 h 22 min
  521. Bit rate                                 : 16.6 kb/s
  522. Count of elements                        : 1120
  523. Stream size                              : 9.76 MiB (0%)
  524. Language                                 : Danish
  525. Default                                  : No
  526. Forced                                   : No
  527. Original source medium                   : Blu-ray

  528. Text #9
  529. ID                                       : 27
  530. ID in the original source medium         : 4775 (0x12A7)
  531. Format                                   : PGS
  532. Muxing mode                              : zlib
  533. Codec ID                                 : S_HDMV/PGS
  534. Codec ID/Info                            : Picture based subtitle format used on BDs/HD-DVDs
  535. Duration                                 : 1 h 22 min
  536. Bit rate                                 : 17.3 kb/s
  537. Count of elements                        : 1014
  538. Stream size                              : 10.2 MiB (0%)
  539. Language                                 : Dutch
  540. Default                                  : No
  541. Forced                                   : No
  542. Original source medium                   : Blu-ray

  543. Text #10
  544. ID                                       : 28
  545. ID in the original source medium         : 4776 (0x12A8)
  546. Format                                   : PGS
  547. Muxing mode                              : zlib
  548. Codec ID                                 : S_HDMV/PGS
  549. Codec ID/Info                            : Picture based subtitle format used on BDs/HD-DVDs
  550. Duration                                 : 1 h 31 min
  551. Bit rate                                 : 15.9 kb/s
  552. Count of elements                        : 1310
  553. Stream size                              : 10.4 MiB (0%)
  554. Language                                 : Finnish
  555. Default                                  : No
  556. Forced                                   : No
  557. Original source medium                   : Blu-ray

  558. Text #11
  559. ID                                       : 29
  560. ID in the original source medium         : 4777 (0x12A9)
  561. Format                                   : PGS
  562. Muxing mode                              : zlib
  563. Codec ID                                 : S_HDMV/PGS
  564. Codec ID/Info                            : Picture based subtitle format used on BDs/HD-DVDs
  565. Duration                                 : 1 h 31 min
  566. Bit rate                                 : 16.4 kb/s
  567. Count of elements                        : 1276
  568. Stream size                              : 10.8 MiB (0%)
  569. Language                                 : French
  570. Default                                  : No
  571. Forced                                   : No
  572. Original source medium                   : Blu-ray

  573. Text #12
  574. ID                                       : 30
  575. ID in the original source medium         : 4778 (0x12AA)
  576. Format                                   : PGS
  577. Muxing mode                              : zlib
  578. Codec ID                                 : S_HDMV/PGS
  579. Codec ID/Info                            : Picture based subtitle format used on BDs/HD-DVDs
  580. Duration                                 : 1 h 22 min
  581. Bit rate                                 : 18.3 kb/s
  582. Count of elements                        : 1292
  583. Stream size                              : 10.8 MiB (0%)
  584. Language                                 : German
  585. Default                                  : No
  586. Forced                                   : No
  587. Original source medium                   : Blu-ray

  588. Text #13
  589. ID                                       : 31
  590. ID in the original source medium         : 4779 (0x12AB)
  591. Format                                   : PGS
  592. Muxing mode                              : zlib
  593. Codec ID                                 : S_HDMV/PGS
  594. Codec ID/Info                            : Picture based subtitle format used on BDs/HD-DVDs
  595. Duration                                 : 1 h 22 min
  596. Bit rate                                 : 18.6 kb/s
  597. Count of elements                        : 1232
  598. Stream size                              : 11.0 MiB (0%)
  599. Language                                 : Greek
  600. Default                                  : No
  601. Forced                                   : No
  602. Original source medium                   : Blu-ray

  603. Text #14
  604. ID                                       : 32
  605. ID in the original source medium         : 4780 (0x12AC)
  606. Format                                   : PGS
  607. Muxing mode                              : zlib
  608. Codec ID                                 : S_HDMV/PGS
  609. Codec ID/Info                            : Picture based subtitle format used on BDs/HD-DVDs
  610. Duration                                 : 1 h 31 min
  611. Bit rate                                 : 13.6 kb/s
  612. Count of elements                        : 1310
  613. Stream size                              : 8.93 MiB (0%)
  614. Language                                 : Hindi
  615. Default                                  : No
  616. Forced                                   : No
  617. Original source medium                   : Blu-ray

  618. Text #15
  619. ID                                       : 33
  620. ID in the original source medium         : 4781 (0x12AD)
  621. Format                                   : PGS
  622. Muxing mode                              : zlib
  623. Codec ID                                 : S_HDMV/PGS
  624. Codec ID/Info                            : Picture based subtitle format used on BDs/HD-DVDs
  625. Duration                                 : 1 h 31 min
  626. Bit rate                                 : 13.9 kb/s
  627. Count of elements                        : 1196
  628. Stream size                              : 9.10 MiB (0%)
  629. Language                                 : Hungarian
  630. Default                                  : No
  631. Forced                                   : No
  632. Original source medium                   : Blu-ray

  633. Text #16
  634. ID                                       : 34
  635. ID in the original source medium         : 4782 (0x12AE)
  636. Format                                   : PGS
  637. Muxing mode                              : zlib
  638. Codec ID                                 : S_HDMV/PGS
  639. Codec ID/Info                            : Picture based subtitle format used on BDs/HD-DVDs
  640. Duration                                 : 1 h 31 min
  641. Bit rate                                 : 16.8 kb/s
  642. Count of elements                        : 1158
  643. Stream size                              : 11.0 MiB (0%)
  644. Language                                 : Icelandic
  645. Default                                  : No
  646. Forced                                   : No
  647. Original source medium                   : Blu-ray

  648. Text #17
  649. ID                                       : 35
  650. ID in the original source medium         : 4783 (0x12AF)
  651. Format                                   : PGS
  652. Muxing mode                              : zlib
  653. Codec ID                                 : S_HDMV/PGS
  654. Codec ID/Info                            : Picture based subtitle format used on BDs/HD-DVDs
  655. Duration                                 : 1 h 31 min
  656. Bit rate                                 : 17.9 kb/s
  657. Count of elements                        : 1314
  658. Stream size                              : 11.7 MiB (0%)
  659. Language                                 : Italian
  660. Default                                  : No
  661. Forced                                   : No
  662. Original source medium                   : Blu-ray

  663. Text #18
  664. ID                                       : 36
  665. ID in the original source medium         : 4784 (0x12B0)
  666. Format                                   : PGS
  667. Muxing mode                              : zlib
  668. Codec ID                                 : S_HDMV/PGS
  669. Codec ID/Info                            : Picture based subtitle format used on BDs/HD-DVDs
  670. Duration                                 : 1 h 31 min
  671. Bit rate                                 : 13.3 kb/s
  672. Count of elements                        : 1274
  673. Stream size                              : 8.68 MiB (0%)
  674. Language                                 : Japanese
  675. Default                                  : No
  676. Forced                                   : No
  677. Original source medium                   : Blu-ray

  678. Text #19
  679. ID                                       : 37
  680. ID in the original source medium         : 4785 (0x12B1)
  681. Format                                   : PGS
  682. Muxing mode                              : zlib
  683. Codec ID                                 : S_HDMV/PGS
  684. Codec ID/Info                            : Picture based subtitle format used on BDs/HD-DVDs
  685. Duration                                 : 1 h 23 min
  686. Bit rate                                 : 13.8 kb/s
  687. Count of elements                        : 1312
  688. Stream size                              : 8.28 MiB (0%)
  689. Language                                 : Korean
  690. Default                                  : No
  691. Forced                                   : No
  692. Original source medium                   : Blu-ray

  693. Text #20
  694. ID                                       : 38
  695. ID in the original source medium         : 4786 (0x12B2)
  696. Format                                   : PGS
  697. Muxing mode                              : zlib
  698. Codec ID                                 : S_HDMV/PGS
  699. Codec ID/Info                            : Picture based subtitle format used on BDs/HD-DVDs
  700. Duration                                 : 1 h 22 min
  701. Bit rate                                 : 18.9 kb/s
  702. Count of elements                        : 1308
  703. Stream size                              : 11.1 MiB (0%)
  704. Language                                 : Norwegian
  705. Default                                  : No
  706. Forced                                   : No
  707. Original source medium                   : Blu-ray

  708. Text #21
  709. ID                                       : 39
  710. ID in the original source medium         : 4787 (0x12B3)
  711. Format                                   : PGS
  712. Muxing mode                              : zlib
  713. Codec ID                                 : S_HDMV/PGS
  714. Codec ID/Info                            : Picture based subtitle format used on BDs/HD-DVDs
  715. Duration                                 : 1 h 22 min
  716. Bit rate                                 : 17.3 kb/s
  717. Count of elements                        : 1258
  718. Stream size                              : 10.2 MiB (0%)
  719. Language                                 : Polish
  720. Default                                  : No
  721. Forced                                   : No
  722. Original source medium                   : Blu-ray

  723. Text #22
  724. ID                                       : 40
  725. ID in the original source medium         : 4788 (0x12B4)
  726. Format                                   : PGS
  727. Muxing mode                              : zlib
  728. Codec ID                                 : S_HDMV/PGS
  729. Codec ID/Info                            : Picture based subtitle format used on BDs/HD-DVDs
  730. Duration                                 : 1 h 31 min
  731. Bit rate                                 : 17.4 kb/s
  732. Count of elements                        : 1304
  733. Stream size                              : 11.4 MiB (0%)
  734. Language                                 : Portuguese
  735. Default                                  : No
  736. Forced                                   : No
  737. Original source medium                   : Blu-ray

  738. Text #23
  739. ID                                       : 41
  740. ID in the original source medium         : 4789 (0x12B5)
  741. Format                                   : PGS
  742. Muxing mode                              : zlib
  743. Codec ID                                 : S_HDMV/PGS
  744. Codec ID/Info                            : Picture based subtitle format used on BDs/HD-DVDs
  745. Duration                                 : 1 h 31 min
  746. Bit rate                                 : 16.9 kb/s
  747. Count of elements                        : 1254
  748. Stream size                              : 11.1 MiB (0%)
  749. Language                                 : Romanian
  750. Default                                  : No
  751. Forced                                   : No
  752. Original source medium                   : Blu-ray

  753. Text #24
  754. ID                                       : 42
  755. ID in the original source medium         : 4790 (0x12B6)
  756. Format                                   : PGS
  757. Muxing mode                              : zlib
  758. Codec ID                                 : S_HDMV/PGS
  759. Codec ID/Info                            : Picture based subtitle format used on BDs/HD-DVDs
  760. Duration                                 : 1 h 31 min
  761. Bit rate                                 : 16.3 kb/s
  762. Count of elements                        : 1316
  763. Stream size                              : 10.7 MiB (0%)
  764. Language                                 : Slovak
  765. Default                                  : No
  766. Forced                                   : No
  767. Original source medium                   : Blu-ray

  768. Text #25
  769. ID                                       : 43
  770. ID in the original source medium         : 4791 (0x12B7)
  771. Format                                   : PGS
  772. Muxing mode                              : zlib
  773. Codec ID                                 : S_HDMV/PGS
  774. Codec ID/Info                            : Picture based subtitle format used on BDs/HD-DVDs
  775. Duration                                 : 1 h 22 min
  776. Bit rate                                 : 16.6 kb/s
  777. Count of elements                        : 1308
  778. Stream size                              : 9.78 MiB (0%)
  779. Language                                 : Slovenian
  780. Default                                  : No
  781. Forced                                   : No
  782. Original source medium                   : Blu-ray

  783. Text #26
  784. ID                                       : 44
  785. ID in the original source medium         : 4792 (0x12B8)
  786. Format                                   : PGS
  787. Muxing mode                              : zlib
  788. Codec ID                                 : S_HDMV/PGS
  789. Codec ID/Info                            : Picture based subtitle format used on BDs/HD-DVDs
  790. Duration                                 : 1 h 23 min
  791. Bit rate                                 : 18.8 kb/s
  792. Count of elements                        : 1248
  793. Stream size                              : 11.3 MiB (0%)
  794. Language                                 : Spanish
  795. Default                                  : No
  796. Forced                                   : No
  797. Original source medium                   : Blu-ray

  798. Text #27
  799. ID                                       : 45
  800. ID in the original source medium         : 4793 (0x12B9)
  801. Format                                   : PGS
  802. Muxing mode                              : zlib
  803. Codec ID                                 : S_HDMV/PGS
  804. Codec ID/Info                            : Picture based subtitle format used on BDs/HD-DVDs
  805. Duration                                 : 1 h 23 min
  806. Bit rate                                 : 17.2 kb/s
  807. Count of elements                        : 1282
  808. Stream size                              : 10.3 MiB (0%)
  809. Language                                 : Spanish
  810. Default                                  : No
  811. Forced                                   : No
  812. Original source medium                   : Blu-ray

  813. Text #28
  814. ID                                       : 46
  815. ID in the original source medium         : 4794 (0x12BA)
  816. Format                                   : PGS
  817. Muxing mode                              : zlib
  818. Codec ID                                 : S_HDMV/PGS
  819. Codec ID/Info                            : Picture based subtitle format used on BDs/HD-DVDs
  820. Duration                                 : 1 h 22 min
  821. Bit rate                                 : 18.7 kb/s
  822. Count of elements                        : 1284
  823. Stream size                              : 11.0 MiB (0%)
  824. Language                                 : Swedish
  825. Default                                  : No
  826. Forced                                   : No
  827. Original source medium                   : Blu-ray

  828. Text #29
  829. ID                                       : 47
  830. ID in the original source medium         : 4795 (0x12BB)
  831. Format                                   : PGS
  832. Muxing mode                              : zlib
  833. Codec ID                                 : S_HDMV/PGS
  834. Codec ID/Info                            : Picture based subtitle format used on BDs/HD-DVDs
  835. Duration                                 : 1 h 22 min
  836. Bit rate                                 : 18.6 kb/s
  837. Count of elements                        : 1296
  838. Stream size                              : 11.0 MiB (0%)
  839. Language                                 : Thai
  840. Default                                  : No
  841. Forced                                   : No
  842. Original source medium                   : Blu-ray

  843. Text #30
  844. ID                                       : 48
  845. ID in the original source medium         : 4796 (0x12BC)
  846. Format                                   : PGS
  847. Muxing mode                              : zlib
  848. Codec ID                                 : S_HDMV/PGS
  849. Codec ID/Info                            : Picture based subtitle format used on BDs/HD-DVDs
  850. Duration                                 : 1 h 22 min
  851. Bit rate                                 : 17.5 kb/s
  852. Count of elements                        : 1308
  853. Stream size                              : 10.3 MiB (0%)
  854. Language                                 : Turkish
  855. Default                                  : No
  856. Forced                                   : No
  857. Original source medium                   : Blu-ray

  858. Text #31
  859. ID                                       : 49
  860. ID in the original source medium         : 4797 (0x12BD)
  861. Format                                   : PGS
  862. Muxing mode                              : zlib
  863. Codec ID                                 : S_HDMV/PGS
  864. Codec ID/Info                            : Picture based subtitle format used on BDs/HD-DVDs
  865. Duration                                 : 3 s 24 ms
  866. Bit rate                                 : 37.5 kb/s
  867. Count of elements                        : 2
  868. Stream size                              : 13.9 KiB (0%)
  869. Title                                    : FORCED
  870. Language                                 : Japanese
  871. Default                                  : No
  872. Forced                                   : No
  873. Original source medium                   : Blu-ray

  874. Menu
  875. 00:00:00.000                             : en:Chapter 01
  876. 00:06:20.880                             : en:Chapter 02
  877. 00:11:43.411                             : en:Chapter 03
  878. 00:16:45.629                             : en:Chapter 04
  879. 00:24:34.055                             : en:Chapter 05
  880. 00:30:29.285                             : en:Chapter 06
  881. 00:36:34.066                             : en:Chapter 07
  882. 00:40:18.040                             : en:Chapter 08
  883. 00:46:29.870                             : en:Chapter 09
  884. 00:50:55.594                             : en:Chapter 10
  885. 00:55:09.222                             : en:Chapter 11
  886. 01:00:40.303                             : en:Chapter 12
  887. 01:07:14.280                             : en:Chapter 13
  888. 01:13:30.322                             : en:Chapter 14
  889. 01:16:39.553                             : en:Chapter 15
  890. 01:22:34.532                             : en:Chapter 16
复制代码




                                       
                                       

                                       
                                       
                                       




回复

使用道具 举报

懒得打字嘛,点击右侧快捷回复 【右侧内容,后台自定义】
您需要登录后才可以回帖 登录 | 立即加入

本版积分规则

Archiver|小黑屋| 蓝光电影网 |网站地图

Copyright © 2021 Comsenz Inc. Powered by 蓝光电影网

蓝光电影网

本站内容由用户自主分享和转载自互联网,转载目的在于传递更多信息,并不代表本网赞同其观点和对其真实性负责。

如有侵权、违反国家法律政策行为,请联系我们,我们会第一时间及时清除和处理!

举报反馈邮箱:[email protected]

快速回复 返回顶部 返回列表