找回密码

蓝光电影网

查看: 403|回复: 1

[REMUX.HEVC] 黑夜传说2:进化/决战异世界2 Underworld.Evolution.2006.2160p.BluRay.REMUX.HEVC.DTS-HD.MA.TrueHD.7.1.Atmos-FGT 52.04GB

[复制链接]
蓝光币
682
发表于 2021-10-26 11:49:34 | 显示全部楼层 |阅读模式


◎译  名 黑夜传闻2:进化/决战异天下2(台)/妖夜寻狼之魔间叛徒(港)
◎片  名 Underworld: Evolution
◎年  代 2006
◎产  地 美国,加拿大
◎类  别 行动 / 惊悚 / 奇异
◎语  言 英语,法语,匈牙利语
◎上映日期 2006-01-20(美国)
◎豆瓣评分 7.4/10 from 67791 users
◎豆瓣链接 https://movie.douban.com/subject/1422920/
◎片  长 106 分钟
◎导  演 伦·怀斯曼 Len Wiseman
◎编  剧 Danny McBride Danny McBride / 伦·怀斯曼 Len Wiseman / 凯文·格雷维奥斯 Kevin Grevioux / 丹尼·麦克布莱德 Danny McBride
◎主  演 凯特·贝金赛尔 Kate Beckinsale
       斯科特·斯比德曼 Scott Speedman
       托尼·库兰 Tony Curran
       德里克·雅各比 Derek Jacobi
       比尔·奈伊 Bill Nighy
       斯蒂文·麦金托什 Steven Mackintosh
       山恩·布罗利 Shane Brolly
       布莱恩·斯蒂尔 Brian Steele
       兹塔·格罗格 Zita G?r?g
       约翰曼 John Mann
       麦克·辛 Michael Sheen
       索菲娅·迈尔斯 Sophia Myles
       理查德·赛特伦 Richard Cetrone
       Mike Mukatis Mike Mukatis
        Christine Danielle
       Kaja Gjesdal Kaja Gjesdal
       Alexander Grant Alexander Grant
        Monica Hamburg
       莉莉·莫·辛 Lily Mo Sheen
       安德烈·卡瓦德斯 Andrew Kavadas
       Kayla Levins Kayla Levins
       Raoul Ganeev Raoul Ganeev
       丹尼·帕皮诺 Dany Papineau
       肖恩·罗格森 Sean Rogerson
       阿德里安·霍夫 Adrian Hough
       Kurt Carley Kurt Carley
       麦克·冈瑟 Mike Gunther
◎标  签 吸血鬼 | 魔幻 | 美国 | 行动 | 狼人 | 科幻 | 奇异 | 美国电影
◎简  介


  狼人和吸血鬼之间的大战还在继续。当麦克尔(斯科特?斯比德曼 Scott Speedman 饰)和西丽妮(凯特?贝金赛尔 Kate Beckinsale 饰)还在诡计以自己亏弱的才能阻止这场大战时,诡计家们的佳构又诞生了――狼人和吸血鬼融合的具有超强才能的种族――“血族”。马克思(托尼?库兰 Tony Curran 饰)即是即是这个种族的第二代。他杀死了父亲,夺取了密钥和西丽妮的记忆,救出了一个是狼人、一个是吸血鬼的被软禁千年的孪生兄弟,诡计一统狼人、吸血鬼和人类三大种族。
  
  麦克尔和西丽妮这对情报酬了爱,他们必须挫败马克思的诡计、打败软禁千年的孪生兄弟……
◎获奖情况
  第15届MTV电影奖 ?(2006)
  MTV电影奖最好豪杰形象(提名) 凯特·贝金赛尔
  1. Video
  2. ID                                       : 1
  3. ID in the original source medium         : 4113 (0x1011)
  4. Format                                   : HEVC
  5. Format/Info                              : High Efficiency Video Coding
  6. Format profile                           : Main [email protected]@High
  7. HDR format                               : SMPTE ST 2086, HDR10 compatible
  8. Codec ID                                 : V_MPEGH/ISO/HEVC
  9. Duration                                 : 1 h 46 min
  10. Bit rate                                 : 48.7 Mb/s
  11. Width                                    : 3 840 pixels
  12. Height                                   : 2 160 pixels
  13. Display aspect ratio                     : 16:9
  14. Frame rate mode                          : Constant
  15. Frame rate                               : 23.976 (24000/1001/189150) FPS
  16. Color space                              : YUV
  17. Chroma subsampling                       : 4:2:0 (Type 2)
  18. Bit depth                                : 10 bits
  19. Bits/(Pixel*Frame)                       : 0.245
  20. Stream size                              : 36.2 GiB (69%)
  21. Language                                 : English
  22. Default                                  : No
  23. Forced                                   : No
  24. Color range                              : Limited
  25. Color primaries                          : BT.2020
  26. Transfer characteristics                 : PQ
  27. Matrix coefficients                      : BT.2020 non-constant
  28. Mastering display color primaries        : Display P3
  29. Mastering display luminance              : min: 0.0050 cd/m2, max: 4000 cd/m2
  30. Maximum Content Light Level              : 810 cd/m2
  31. Maximum Frame-Average Light Level        : 498 cd/m2
  32. Original source medium                   : Blu-ray

  33. Audio #1
  34. ID                                       : 2
  35. ID in the original source medium         : 4352 (0x1100)
  36. Format                                   : MLP FBA 16-ch
  37. Format/Info                              : Meridian Lossless Packing FBA with 16-channel presentation
  38. Commercial name                          : Dolby TrueHD with Dolby Atmos
  39. Codec ID                                 : A_TRUEHD
  40. Duration                                 : 1 h 46 min
  41. Bit rate mode                            : Variable
  42. Bit rate                                 : 4 821 kb/s
  43. Maximum bit rate                         : 7 806 kb/s
  44. Channel(s)                               : 8 channels
  45. Channel layout                           : L R C LFE Ls Rs Lb Rb
  46. Sampling rate                            : 48.0 kHz
  47. Frame rate                               : 1 200.000 FPS (40 SPF)
  48. Bit depth                                : 24 bits
  49. Compression mode                         : Lossless
  50. Stream size                              : 3.58 GiB (7%)
  51. Title                                    : TrueHD 7.1 Atmos
  52. Language                                 : English
  53. Default                                  : Yes
  54. Forced                                   : No
  55. Original source medium                   : Blu-ray
  56. Number of dynamic objects                : 11
  57. Bed channel count                        : 1 channel
  58. Bed channel configuration                : LFE

  59. Audio #2
  60. ID                                       : 3
  61. Format                                   : DTS XLL
  62. Format/Info                              : Digital Theater Systems
  63. Commercial name                          : DTS-HD Master Audio
  64. Codec ID                                 : A_DTS
  65. Duration                                 : 1 h 46 min
  66. Bit rate mode                            : Variable
  67. Bit rate                                 : 4 388 kb/s
  68. Channel(s)                               : 8 channels
  69. Channel layout                           : C L R LFE Lb Rb Lss Rss
  70. Sampling rate                            : 48.0 kHz
  71. Frame rate                               : 93.750 FPS (512 SPF)
  72. Bit depth                                : 24 bits
  73. Compression mode                         : Lossless
  74. Stream size                              : 3.26 GiB (6%)
  75. Title                                    : DTS-HD MA 7.1
  76. Language                                 : English
  77. Default                                  : No
  78. Forced                                   : No

  79. Audio #3
  80. ID                                       : 4
  81. ID in the original source medium         : 4352 (0x1100)
  82. Format                                   : AC-3
  83. Format/Info                              : Audio Coding 3
  84. Commercial name                          : Dolby Digital
  85. Codec ID                                 : A_AC3
  86. Duration                                 : 1 h 46 min
  87. Bit rate mode                            : Constant
  88. Bit rate                                 : 640 kb/s
  89. Channel(s)                               : 6 channels
  90. Channel layout                           : L R C LFE Ls Rs
  91. Sampling rate                            : 48.0 kHz
  92. Frame rate                               : 31.250 FPS (1536 SPF)
  93. Compression mode                         : Lossy
  94. Stream size                              : 487 MiB (1%)
  95. Title                                    : DD 5.1
  96. Language                                 : English
  97. Service kind                             : Complete Main
  98. Default                                  : No
  99. Forced                                   : No
  100. Original source medium                   : Blu-ray

  101. Audio #4
  102. ID                                       : 5
  103. ID in the original source medium         : 4354 (0x1102)
  104. Format                                   : DTS XLL
  105. Format/Info                              : Digital Theater Systems
  106. Commercial name                          : DTS-HD Master Audio
  107. Codec ID                                 : A_DTS
  108. Duration                                 : 1 h 46 min
  109. Bit rate mode                            : Variable
  110. Bit rate                                 : 2 341 kb/s
  111. Channel(s)                               : 6 channels
  112. Channel layout                           : C L R Ls Rs LFE
  113. Sampling rate                            : 48.0 kHz
  114. Frame rate                               : 93.750 FPS (512 SPF)
  115. Bit depth                                : 16 bits
  116. Compression mode                         : Lossless
  117. Stream size                              : 1.74 GiB (3%)
  118. Title                                    : DTS-HD mA 5.1
  119. Language                                 : French
  120. Default                                  : No
  121. Forced                                   : No
  122. Original source medium                   : Blu-ray

  123. Audio #5
  124. ID                                       : 6
  125. ID in the original source medium         : 4355 (0x1103)
  126. Format                                   : DTS XLL
  127. Format/Info                              : Digital Theater Systems
  128. Commercial name                          : DTS-HD Master Audio
  129. Codec ID                                 : A_DTS
  130. Duration                                 : 1 h 46 min
  131. Bit rate mode                            : Variable
  132. Bit rate                                 : 2 413 kb/s
  133. Channel(s)                               : 6 channels
  134. Channel layout                           : C L R Ls Rs LFE
  135. Sampling rate                            : 48.0 kHz
  136. Frame rate                               : 93.750 FPS (512 SPF)
  137. Bit depth                                : 16 bits
  138. Compression mode                         : Lossless
  139. Stream size                              : 1.79 GiB (3%)
  140. Title                                    : DTS-HD mA 5.1
  141. Language                                 : German
  142. Default                                  : No
  143. Forced                                   : No
  144. Original source medium                   : Blu-ray

  145. Audio #6
  146. ID                                       : 7
  147. ID in the original source medium         : 4356 (0x1104)
  148. Format                                   : AC-3
  149. Format/Info                              : Audio Coding 3
  150. Commercial name                          : Dolby Digital
  151. Codec ID                                 : A_AC3
  152. Duration                                 : 1 h 46 min
  153. Bit rate mode                            : Constant
  154. Bit rate                                 : 640 kb/s
  155. Channel(s)                               : 6 channels
  156. Channel layout                           : L R C LFE Ls Rs
  157. Sampling rate                            : 48.0 kHz
  158. Frame rate                               : 31.250 FPS (1536 SPF)
  159. Compression mode                         : Lossy
  160. Stream size                              : 487 MiB (1%)
  161. Title                                    : DD 5.1
  162. Language                                 : Hindi
  163. Service kind                             : Complete Main
  164. Default                                  : No
  165. Forced                                   : No
  166. Original source medium                   : Blu-ray

  167. Audio #7
  168. ID                                       : 8
  169. ID in the original source medium         : 4357 (0x1105)
  170. Format                                   : DTS XLL
  171. Format/Info                              : Digital Theater Systems
  172. Commercial name                          : DTS-HD Master Audio
  173. Codec ID                                 : A_DTS
  174. Duration                                 : 1 h 46 min
  175. Bit rate mode                            : Variable
  176. Bit rate                                 : 2 343 kb/s
  177. Channel(s)                               : 6 channels
  178. Channel layout                           : C L R Ls Rs LFE
  179. Sampling rate                            : 48.0 kHz
  180. Frame rate                               : 93.750 FPS (512 SPF)
  181. Bit depth                                : 16 bits
  182. Compression mode                         : Lossless
  183. Stream size                              : 1.74 GiB (3%)
  184. Title                                    : DTS-HD mA 5.1
  185. Language                                 : Italian
  186. Default                                  : No
  187. Forced                                   : No
  188. Original source medium                   : Blu-ray

  189. Audio #8
  190. ID                                       : 9
  191. ID in the original source medium         : 4358 (0x1106)
  192. Format                                   : DTS XLL
  193. Format/Info                              : Digital Theater Systems
  194. Commercial name                          : DTS-HD Master Audio
  195. Codec ID                                 : A_DTS
  196. Duration                                 : 1 h 46 min
  197. Bit rate mode                            : Variable
  198. Bit rate                                 : 2 310 kb/s
  199. Channel(s)                               : 6 channels
  200. Channel layout                           : C L R Ls Rs LFE
  201. Sampling rate                            : 48.0 kHz
  202. Frame rate                               : 93.750 FPS (512 SPF)
  203. Bit depth                                : 16 bits
  204. Compression mode                         : Lossless
  205. Stream size                              : 1.72 GiB (3%)
  206. Title                                    : DTS-HD mA 5.1
  207. Language                                 : Japanese
  208. Default                                  : No
  209. Forced                                   : No
  210. Original source medium                   : Blu-ray

  211. Audio #9
  212. ID                                       : 10
  213. ID in the original source medium         : 4359 (0x1107)
  214. Format                                   : AC-3
  215. Format/Info                              : Audio Coding 3
  216. Commercial name                          : Dolby Digital
  217. Codec ID                                 : A_AC3
  218. Duration                                 : 1 h 46 min
  219. Bit rate mode                            : Constant
  220. Bit rate                                 : 640 kb/s
  221. Channel(s)                               : 6 channels
  222. Channel layout                           : L R C LFE Ls Rs
  223. Sampling rate                            : 48.0 kHz
  224. Frame rate                               : 31.250 FPS (1536 SPF)
  225. Compression mode                         : Lossy
  226. Stream size                              : 487 MiB (1%)
  227. Title                                    : DD 5.1
  228. Language                                 : Spanish
  229. Service kind                             : Complete Main
  230. Default                                  : No
  231. Forced                                   : No
  232. Original source medium                   : Blu-ray

  233. Audio #10
  234. ID                                       : 11
  235. ID in the original source medium         : 4360 (0x1108)
  236. Format                                   : AC-3
  237. Format/Info                              : Audio Coding 3
  238. Commercial name                          : Dolby Digital
  239. Codec ID                                 : A_AC3
  240. Duration                                 : 1 h 46 min
  241. Bit rate mode                            : Constant
  242. Bit rate                                 : 640 kb/s
  243. Channel(s)                               : 6 channels
  244. Channel layout                           : L R C LFE Ls Rs
  245. Sampling rate                            : 48.0 kHz
  246. Frame rate                               : 31.250 FPS (1536 SPF)
  247. Compression mode                         : Lossy
  248. Stream size                              : 487 MiB (1%)
  249. Title                                    : DD 5.1
  250. Language                                 : Turkish
  251. Service kind                             : Complete Main
  252. Default                                  : No
  253. Forced                                   : No
  254. Original source medium                   : Blu-ray

  255. Text #1
  256. ID                                       : 12
  257. Format                                   : UTF-8
  258. Codec ID                                 : S_TEXT/UTF8
  259. Codec ID/Info                            : UTF-8 Plain Text
  260. Duration                                 : 1 h 36 min
  261. Bit rate                                 : 21 b/s
  262. Count of elements                        : 511
  263. Stream size                              : 15.2 KiB (0%)
  264. Title                                    : SRT
  265. Language                                 : English
  266. Default                                  : Yes
  267. Forced                                   : No

  268. Text #2
  269. ID                                       : 13
  270. ID in the original source medium         : 4768 (0x12A0)
  271. Format                                   : PGS
  272. Muxing mode                              : zlib
  273. Codec ID                                 : S_HDMV/PGS
  274. Codec ID/Info                            : Picture based subtitle format used on BDs/HD-DVDs
  275. Duration                                 : 1 h 45 min
  276. Bit rate                                 : 17.1 kb/s
  277. Count of elements                        : 1647
  278. Stream size                              : 12.9 MiB (0%)
  279. Title                                    : SDH
  280. Language                                 : English
  281. Default                                  : No
  282. Forced                                   : No
  283. Original source medium                   : Blu-ray

  284. Text #3
  285. ID                                       : 14
  286. ID in the original source medium         : 4769 (0x12A1)
  287. Format                                   : PGS
  288. Muxing mode                              : zlib
  289. Codec ID                                 : S_HDMV/PGS
  290. Codec ID/Info                            : Picture based subtitle format used on BDs/HD-DVDs
  291. Duration                                 : 1 h 36 min
  292. Bit rate                                 : 12.9 kb/s
  293. Count of elements                        : 1082
  294. Stream size                              : 8.96 MiB (0%)
  295. Language                                 : English
  296. Default                                  : No
  297. Forced                                   : No
  298. Original source medium                   : Blu-ray

  299. Text #4
  300. ID                                       : 15
  301. ID in the original source medium         : 4770 (0x12A2)
  302. Format                                   : PGS
  303. Muxing mode                              : zlib
  304. Codec ID                                 : S_HDMV/PGS
  305. Codec ID/Info                            : Picture based subtitle format used on BDs/HD-DVDs
  306. Duration                                 : 1 h 45 min
  307. Bit rate                                 : 17.1 kb/s
  308. Count of elements                        : 1647
  309. Stream size                              : 12.9 MiB (0%)
  310. Title                                    : SDH
  311. Language                                 : English
  312. Default                                  : No
  313. Forced                                   : No
  314. Original source medium                   : Blu-ray

  315. Text #5
  316. ID                                       : 16
  317. ID in the original source medium         : 4771 (0x12A3)
  318. Format                                   : PGS
  319. Muxing mode                              : zlib
  320. Codec ID                                 : S_HDMV/PGS
  321. Codec ID/Info                            : Picture based subtitle format used on BDs/HD-DVDs
  322. Duration                                 : 1 h 36 min
  323. Bit rate                                 : 12.9 kb/s
  324. Count of elements                        : 1080
  325. Stream size                              : 8.96 MiB (0%)
  326. Language                                 : English
  327. Default                                  : No
  328. Forced                                   : No
  329. Original source medium                   : Blu-ray

  330. Text #6
  331. ID                                       : 17
  332. ID in the original source medium         : 4772 (0x12A4)
  333. Format                                   : PGS
  334. Muxing mode                              : zlib
  335. Codec ID                                 : S_HDMV/PGS
  336. Codec ID/Info                            : Picture based subtitle format used on BDs/HD-DVDs
  337. Duration                                 : 1 h 45 min
  338. Bit rate                                 : 11.9 kb/s
  339. Count of elements                        : 1122
  340. Stream size                              : 9.03 MiB (0%)
  341. Language                                 : Chinese
  342. Default                                  : No
  343. Forced                                   : No
  344. Original source medium                   : Blu-ray

  345. Text #7
  346. ID                                       : 18
  347. ID in the original source medium         : 4773 (0x12A5)
  348. Format                                   : PGS
  349. Muxing mode                              : zlib
  350. Codec ID                                 : S_HDMV/PGS
  351. Codec ID/Info                            : Picture based subtitle format used on BDs/HD-DVDs
  352. Duration                                 : 1 h 37 min
  353. Bit rate                                 : 9 520 b/s
  354. Count of elements                        : 1102
  355. Stream size                              : 6.66 MiB (0%)
  356. Language                                 : Chinese
  357. Default                                  : No
  358. Forced                                   : No
  359. Original source medium                   : Blu-ray

  360. Text #8
  361. ID                                       : 19
  362. ID in the original source medium         : 4774 (0x12A6)
  363. Format                                   : PGS
  364. Muxing mode                              : zlib
  365. Codec ID                                 : S_HDMV/PGS
  366. Codec ID/Info                            : Picture based subtitle format used on BDs/HD-DVDs
  367. Duration                                 : 1 h 45 min
  368. Bit rate                                 : 12.5 kb/s
  369. Count of elements                        : 926
  370. Stream size                              : 9.45 MiB (0%)
  371. Language                                 : Danish
  372. Default                                  : No
  373. Forced                                   : No
  374. Original source medium                   : Blu-ray

  375. Text #9
  376. ID                                       : 20
  377. ID in the original source medium         : 4775 (0x12A7)
  378. Format                                   : PGS
  379. Muxing mode                              : zlib
  380. Codec ID                                 : S_HDMV/PGS
  381. Codec ID/Info                            : Picture based subtitle format used on BDs/HD-DVDs
  382. Duration                                 : 1 h 37 min
  383. Bit rate                                 : 12.9 kb/s
  384. Count of elements                        : 1052
  385. Stream size                              : 9.06 MiB (0%)
  386. Language                                 : Dutch
  387. Default                                  : No
  388. Forced                                   : No
  389. Original source medium                   : Blu-ray

  390. Text #10
  391. ID                                       : 21
  392. ID in the original source medium         : 4776 (0x12A8)
  393. Format                                   : PGS
  394. Muxing mode                              : zlib
  395. Codec ID                                 : S_HDMV/PGS
  396. Codec ID/Info                            : Picture based subtitle format used on BDs/HD-DVDs
  397. Duration                                 : 1 h 45 min
  398. Bit rate                                 : 12.0 kb/s
  399. Count of elements                        : 908
  400. Stream size                              : 9.08 MiB (0%)
  401. Language                                 : Finnish
  402. Default                                  : No
  403. Forced                                   : No
  404. Original source medium                   : Blu-ray

  405. Text #11
  406. ID                                       : 22
  407. ID in the original source medium         : 4777 (0x12A9)
  408. Format                                   : PGS
  409. Muxing mode                              : zlib
  410. Codec ID                                 : S_HDMV/PGS
  411. Codec ID/Info                            : Picture based subtitle format used on BDs/HD-DVDs
  412. Duration                                 : 1 h 45 min
  413. Bit rate                                 : 12.0 kb/s
  414. Count of elements                        : 1118
  415. Stream size                              : 9.07 MiB (0%)
  416. Language                                 : French
  417. Default                                  : No
  418. Forced                                   : No
  419. Original source medium                   : Blu-ray

  420. Text #12
  421. ID                                       : 23
  422. ID in the original source medium         : 4777 (0x12A9)
  423. Format                                   : PGS
  424. Muxing mode                              : zlib
  425. Codec ID                                 : S_HDMV/PGS
  426. Codec ID/Info                            : Picture based subtitle format used on BDs/HD-DVDs
  427. Duration                                 : 1 h 45 min
  428. Bit rate                                 : 493 b/s
  429. Count of elements                        : 34
  430. Stream size                              : 383 KiB (0%)
  431. Language                                 : French
  432. Default                                  : No
  433. Forced                                   : No
  434. Original source medium                   : Blu-ray

  435. Text #13
  436. ID                                       : 24
  437. ID in the original source medium         : 4778 (0x12AA)
  438. Format                                   : PGS
  439. Muxing mode                              : zlib
  440. Codec ID                                 : S_HDMV/PGS
  441. Codec ID/Info                            : Picture based subtitle format used on BDs/HD-DVDs
  442. Duration                                 : 1 h 37 min
  443. Bit rate                                 : 13.7 kb/s
  444. Count of elements                        : 1078
  445. Stream size                              : 9.59 MiB (0%)
  446. Language                                 : German
  447. Default                                  : No
  448. Forced                                   : No
  449. Original source medium                   : Blu-ray

  450. Text #14
  451. ID                                       : 25
  452. ID in the original source medium         : 4778 (0x12AA)
  453. Format                                   : PGS
  454. Muxing mode                              : zlib
  455. Codec ID                                 : S_HDMV/PGS
  456. Codec ID/Info                            : Picture based subtitle format used on BDs/HD-DVDs
  457. Duration                                 : 1 h 0 min
  458. Bit rate                                 : 1 176 b/s
  459. Count of elements                        : 42
  460. Stream size                              : 518 KiB (0%)
  461. Language                                 : German
  462. Default                                  : No
  463. Forced                                   : No
  464. Original source medium                   : Blu-ray

  465. Text #15
  466. ID                                       : 26
  467. ID in the original source medium         : 4779 (0x12AB)
  468. Format                                   : PGS
  469. Muxing mode                              : zlib
  470. Codec ID                                 : S_HDMV/PGS
  471. Codec ID/Info                            : Picture based subtitle format used on BDs/HD-DVDs
  472. Duration                                 : 1 h 37 min
  473. Bit rate                                 : 10.1 kb/s
  474. Count of elements                        : 1128
  475. Stream size                              : 7.07 MiB (0%)
  476. Language                                 : Hebrew
  477. Default                                  : No
  478. Forced                                   : No
  479. Original source medium                   : Blu-ray

  480. Text #16
  481. ID                                       : 27
  482. ID in the original source medium         : 4780 (0x12AC)
  483. Format                                   : PGS
  484. Muxing mode                              : zlib
  485. Codec ID                                 : S_HDMV/PGS
  486. Codec ID/Info                            : Picture based subtitle format used on BDs/HD-DVDs
  487. Duration                                 : 1 h 45 min
  488. Bit rate                                 : 10.4 kb/s
  489. Count of elements                        : 1116
  490. Stream size                              : 7.86 MiB (0%)
  491. Language                                 : Hindi
  492. Default                                  : No
  493. Forced                                   : No
  494. Original source medium                   : Blu-ray

  495. Text #17
  496. ID                                       : 28
  497. ID in the original source medium         : 4781 (0x12AD)
  498. Format                                   : PGS
  499. Muxing mode                              : zlib
  500. Codec ID                                 : S_HDMV/PGS
  501. Codec ID/Info                            : Picture based subtitle format used on BDs/HD-DVDs
  502. Duration                                 : 1 h 45 min
  503. Bit rate                                 : 13.1 kb/s
  504. Count of elements                        : 1130
  505. Stream size                              : 9.88 MiB (0%)
  506. Language                                 : Italian
  507. Default                                  : No
  508. Forced                                   : No
  509. Original source medium                   : Blu-ray

  510. Text #18
  511. ID                                       : 29
  512. ID in the original source medium         : 4781 (0x12AD)
  513. Format                                   : PGS
  514. Muxing mode                              : zlib
  515. Codec ID                                 : S_HDMV/PGS
  516. Codec ID/Info                            : Picture based subtitle format used on BDs/HD-DVDs
  517. Duration                                 : 1 h 45 min
  518. Bit rate                                 : 526 b/s
  519. Count of elements                        : 44
  520. Stream size                              : 407 KiB (0%)
  521. Language                                 : Italian
  522. Default                                  : No
  523. Forced                                   : No
  524. Original source medium                   : Blu-ray

  525. Text #19
  526. ID                                       : 30
  527. ID in the original source medium         : 4782 (0x12AE)
  528. Format                                   : PGS
  529. Muxing mode                              : zlib
  530. Codec ID                                 : S_HDMV/PGS
  531. Codec ID/Info                            : Picture based subtitle format used on BDs/HD-DVDs
  532. Duration                                 : 1 h 45 min
  533. Bit rate                                 : 9 820 b/s
  534. Count of elements                        : 996
  535. Stream size                              : 7.43 MiB (0%)
  536. Language                                 : Japanese
  537. Default                                  : No
  538. Forced                                   : No
  539. Original source medium                   : Blu-ray

  540. Text #20
  541. ID                                       : 31
  542. ID in the original source medium         : 4783 (0x12AF)
  543. Format                                   : PGS
  544. Muxing mode                              : zlib
  545. Codec ID                                 : S_HDMV/PGS
  546. Codec ID/Info                            : Picture based subtitle format used on BDs/HD-DVDs
  547. Duration                                 : 1 h 37 min
  548. Bit rate                                 : 12.7 kb/s
  549. Count of elements                        : 1050
  550. Stream size                              : 8.86 MiB (0%)
  551. Language                                 : Norwegian
  552. Default                                  : No
  553. Forced                                   : No
  554. Original source medium                   : Blu-ray

  555. Text #21
  556. ID                                       : 32
  557. ID in the original source medium         : 4784 (0x12B0)
  558. Format                                   : PGS
  559. Muxing mode                              : zlib
  560. Codec ID                                 : S_HDMV/PGS
  561. Codec ID/Info                            : Picture based subtitle format used on BDs/HD-DVDs
  562. Duration                                 : 1 h 39 min
  563. Bit rate                                 : 13.0 kb/s
  564. Count of elements                        : 1118
  565. Stream size                              : 9.22 MiB (0%)
  566. Language                                 : Spanish
  567. Default                                  : No
  568. Forced                                   : No
  569. Original source medium                   : Blu-ray

  570. Text #22
  571. ID                                       : 33
  572. ID in the original source medium         : 4784 (0x12B0)
  573. Format                                   : PGS
  574. Muxing mode                              : zlib
  575. Codec ID                                 : S_HDMV/PGS
  576. Codec ID/Info                            : Picture based subtitle format used on BDs/HD-DVDs
  577. Duration                                 : 59 min 30 s
  578. Bit rate                                 : 303 b/s
  579. Count of elements                        : 14
  580. Stream size                              : 132 KiB (0%)
  581. Language                                 : Spanish
  582. Default                                  : No
  583. Forced                                   : No
  584. Original source medium                   : Blu-ray

  585. Text #23
  586. ID                                       : 34
  587. ID in the original source medium         : 4785 (0x12B1)
  588. Format                                   : PGS
  589. Muxing mode                              : zlib
  590. Codec ID                                 : S_HDMV/PGS
  591. Codec ID/Info                            : Picture based subtitle format used on BDs/HD-DVDs
  592. Duration                                 : 1 h 45 min
  593. Bit rate                                 : 10.8 kb/s
  594. Count of elements                        : 850
  595. Stream size                              : 8.16 MiB (0%)
  596. Language                                 : Swedish
  597. Default                                  : No
  598. Forced                                   : No
  599. Original source medium                   : Blu-ray

  600. Text #24
  601. ID                                       : 35
  602. ID in the original source medium         : 4786 (0x12B2)
  603. Format                                   : PGS
  604. Muxing mode                              : zlib
  605. Codec ID                                 : S_HDMV/PGS
  606. Codec ID/Info                            : Picture based subtitle format used on BDs/HD-DVDs
  607. Duration                                 : 1 h 37 min
  608. Bit rate                                 : 13.8 kb/s
  609. Count of elements                        : 1122
  610. Stream size                              : 9.68 MiB (0%)
  611. Language                                 : Turkish
  612. Default                                  : No
  613. Forced                                   : No
  614. Original source medium                   : Blu-ray

  615. Text #25
  616. ID                                       : 36
  617. ID in the original source medium         : 4787 (0x12B3)
  618. Format                                   : PGS
  619. Muxing mode                              : zlib
  620. Codec ID                                 : S_HDMV/PGS
  621. Codec ID/Info                            : Picture based subtitle format used on BDs/HD-DVDs
  622. Duration                                 : 1 h 45 min
  623. Bit rate                                 : 74 b/s
  624. Count of elements                        : 10
  625. Stream size                              : 57.7 KiB (0%)
  626. Title                                    : FORCED
  627. Language                                 : Japanese
  628. Default                                  : No
  629. Forced                                   : No
  630. Original source medium                   : Blu-ray

  631. Menu
  632. 00:00:00.000                             : en:Chapter 01
  633. 00:09:46.085                             : en:Chapter 02
  634. 00:12:20.823                             : en:Chapter 03
  635. 00:17:17.828                             : en:Chapter 04
  636. 00:23:11.723                             : en:Chapter 05
  637. 00:33:47.650                             : en:Chapter 06
  638. 00:38:58.252                             : en:Chapter 07
  639. 00:43:31.692                             : en:Chapter 08
  640. 00:49:11.573                             : en:Chapter 09
  641. 00:56:43.858                             : en:Chapter 10
  642. 01:03:08.826                             : en:Chapter 11
  643. 01:10:37.316                             : en:Chapter 12
  644. 01:17:16.673                             : en:Chapter 13
  645. 01:21:32.262                             : en:Chapter 14
  646. 01:28:48.573                             : en:Chapter 15
  647. 01:32:17.990                             : en:Chapter 16
复制代码




                                       
                                       

                                       
                                       
                                       




回复

使用道具 举报

蓝光币
647
发表于 2021-10-26 13:11:26 | 显示全部楼层

楼主太厉害了!楼主,电影应该很好看我觉得蓝光电影网真是个好地方!
回复 支持 反对

使用道具 举报

懒得打字嘛,点击右侧快捷回复 【右侧内容,后台自定义】
您需要登录后才可以回帖 登录 | 立即加入

本版积分规则

Archiver|小黑屋| 蓝光电影网 |网站地图

Copyright © 2021 Comsenz Inc. Powered by 蓝光电影网

蓝光电影网

本站内容由用户自主分享和转载自互联网,转载目的在于传递更多信息,并不代表本网赞同其观点和对其真实性负责。

如有侵权、违反国家法律政策行为,请联系我们,我们会第一时间及时清除和处理!

举报反馈邮箱:[email protected]

快速回复 返回顶部 返回列表