找回密码

蓝光电影网

查看: 125|回复: 0

[剧情] 甜心 Sweetheart.2021.1080p.WEBRip.DD5.1.x264-NOGRP 5.12GB

[复制链接]
蓝光币
730
发表于 2021-10-26 12:18:28 | 显示全部楼层 |阅读模式


◎译  名 甜心
◎片  名 Sweetheart
◎年  代 2020
◎产  地 英国
◎类  别 剧情 / 笑剧 / 恋爱
◎语  言 英语
◎上映日期 2021-03(英国)
◎豆瓣评分 /10 from 0 users
◎豆瓣链接 https://movie.douban.com/subject/35327832/
◎片  长 103分钟
◎主  演 索菲娅·迪·马蒂诺 Sophia Di Martino
       埃拉-雷·史姑娘 Ella-Rae Smith
       乔·哈特利 Jo Hartley
       塞缪尔·安德森 Samuel Anderson
       斯戴凡·辛尼德 Steffan Cennydd
       William Andrews William Andrews
◎标  签 Queer | 同道 | 2021 | 青春 | 英国电影 | 英国 | 电影院 | 电影
◎简  介


  Marley Morrison’s knockout debut feature is a sharply observed coming-of-age story that will make you wince and laugh in painful recognition of universal truths. 17-year-old AJ (Nell Barlow) is not one of life’s shiny, happy people. A family holiday at a caravan park in Dorset is her idea of hell. A moody misfit, she dresses for concealment and lets everyone know that she would rather be anywhere else. Then she spies flirty, free-spirited lifeguard Isla (Ella-Rae Smith) who might just be the girl of her dreams. Can AJ dare to take a first step on the road to happiness?
  1. Video
  2. ID                                       : 1
  3. Format                                   : AVC
  4. Format/Info                              : Advanced Video Codec
  5. Format profile                           : [email protected]
  6. Format settings                          : CABAC / 5 Ref Frames
  7. Format settings, CABAC                   : Yes
  8. Format settings, Reference frames        : 5 frames
  9. Codec ID                                 : V_MPEG4/ISO/AVC
  10. Duration                                 : 1 h 42 min
  11. Bit rate                                 : 6 741 kb/s
  12. Width                                    : 1 916 pixels
  13. Height                                   : 800 pixels
  14. Display aspect ratio                     : 2.40:1
  15. Frame rate mode                          : Constant
  16. Frame rate                               : 25.000 FPS
  17. Color space                              : YUV
  18. Chroma subsampling                       : 4:2:0
  19. Bit depth                                : 8 bits
  20. Scan type                                : Progressive
  21. Bits/(Pixel*Frame)                       : 0.176
  22. Stream size                              : 4.84 GiB (95%)
  23. Default                                  : Yes
  24. Forced                                   : No
  25. Color range                              : Limited
  26. Color primaries                          : BT.709
  27. Transfer characteristics                 : BT.709
  28. Matrix coefficients                      : BT.709
  29. Audio
  30. ID                                       : 2
  31. Format                                   : AC-3
  32. Format/Info                              : Audio Coding 3
  33. Commercial name                          : Dolby Digital
  34. Codec ID                                 : A_AC3
  35. Duration                                 : 1 h 42 min
  36. Bit rate mode                            : Constant
  37. Bit rate                                 : 384 kb/s
  38. Channel(s)                               : 6 channels
  39. Channel layout                           : L R C LFE Ls Rs
  40. Sampling rate                            : 48.0 kHz
  41. Frame rate                               : 31.250 FPS (1536 SPF)
  42. Compression mode                         : Lossy
  43. Stream size                              : 283 MiB (5%)
  44. Title                                    : English
  45. Language                                 : English
  46. Service kind                             : Complete Main
  47. Default                                  : No
  48. Forced                                   : No
复制代码







                                       
                                       

                                       
                                       
                                       




回复

使用道具 举报

懒得打字嘛,点击右侧快捷回复 【右侧内容,后台自定义】
您需要登录后才可以回帖 登录 | 立即加入

本版积分规则

Archiver|小黑屋| 蓝光电影网 |网站地图

Copyright © 2021 Comsenz Inc. Powered by 蓝光电影网

蓝光电影网

本站内容由用户自主分享和转载自互联网,转载目的在于传递更多信息,并不代表本网赞同其观点和对其真实性负责。

如有侵权、违反国家法律政策行为,请联系我们,我们会第一时间及时清除和处理!

举报反馈邮箱:[email protected]

快速回复 返回顶部 返回列表