找回密码

蓝光电影网

查看: 397|回复: 2

[10bit.SDR] 屏住呼吸2/别呼吸2 Dont.Breathe.2.2021.2160p.BluRay.x265.10bit.SDR.DTS-HD.MA.TrueHD.7.1.Atmos-SWTYBLZ 25.83GB

[复制链接]
蓝光币
733
发表于 2021-10-26 15:42:41 | 显示全部楼层 |阅读模式


◎译  名 屏住呼吸2/别呼吸2/临时停止呼吸2(台)/禁室杀戮2(港)
◎片  名 Don't Breathe 2
◎年  代 2021
◎产  地 美国,塞尔维亚
◎类  别 惊悚 / 可骇
◎语  言 英语
◎上映日期 2021-08-13(美国)
◎豆瓣评分 6.5/10 from 18104 users
◎豆瓣链接 https://movie.douban.com/subject/26915921/
◎片  长 98分钟
◎导  演 罗多·赛亚格斯 Rodo Sayagues
◎编  剧 费德·阿尔瓦雷兹 Fede Alvarez / 罗多·赛亚格斯 Rodo Sayagues
◎主  演 史蒂芬·朗 Stephen Lang
       布兰登·萨克斯顿 Brendan Sexton III
       马德琳·格雷斯 Madelyn Grace
       罗奇·威廉姆斯 Rocci Williams
       斯蒂芬妮·阿西拉 Stephanie Arcila
       鲍比·斯科菲尔德 Bobby Schofield
       戴安娜·巴尼科娃 Diaana Babnicova
       亚当·扬 Adam Young
       克里斯蒂安·泽吉亚 Christian Zagia
       罗恩·罗格尔 Ron Rogell
       菲奥娜·奥肖内西 Fiona O'Shaughnessy
◎标  签 惊悚 | 犯罪 | 美国 | 悬疑 | 2021 | 可骇 | 美国电影 | 电影
◎简  介


  《屏住呼吸1》编剧罗多·赛亚格斯执导,并同前作导演费德·阿尔瓦雷兹一路写剧本,史蒂芬·朗、罗奇·威廉姆斯、斯蒂芬妮·阿西拉、鲍比·斯科菲尔德、亚当·扬等主演。
  
  故事发生在最初致命的入室抢劫以后的几年,眼盲的退伍老兵诺曼过着安静的生活,直到曩昔的罪行起头找上他。
  1. Video
  2. ID                                       : 1
  3. Format                                   : HEVC
  4. Format/Info                              : High Efficiency Video Coding
  5. Format profile                           : Main [email protected]@High
  6. Codec ID                                 : V_MPEGH/ISO/HEVC
  7. Duration                                 : 1 h 38 min
  8. Bit rate                                 : 28.6 Mb/s
  9. Width                                    : 3 840 pixels
  10. Height                                   : 1 608 pixels
  11. Display aspect ratio                     : 2.40:1
  12. Frame rate mode                          : Constant
  13. Frame rate                               : 23.976 (24000/1001/189150) FPS
  14. Color space                              : YUV
  15. Chroma subsampling                       : 4:2:0
  16. Bit depth                                : 10 bits
  17. Bits/(Pixel*Frame)                       : 0.193
  18. Stream size                              : 19.6 GiB (76%)
  19. Writing library                          : x265 3.0ed72af837053:[Windows][GCC 8.2.0][64 bit] 10bit
  20. Encoding settings                        : cpuid=1111039 / frame-threads=6 / numa-pools=40 / wpp / no-pmode / no-pme / no-psnr / no-ssim / log-level=2 / input-csp=1 / input-res=3840x1608 / interlace=0 / total-frames=141336 / level-idc=51 / high-tier=1 / uhd-bd=0 / ref=3 / no-allow-non-conformance / repeat-headers / annexb / aud / hrd / info / hash=0 / no-temporal-layers / no-open-gop / min-keyint=1 / keyint=24 / gop-lookahead=0 / bframes=4 / b-adapt=2 / b-pyramid / bframe-bias=0 / rc-lookahead=25 / lookahead-slices=4 / scenecut=40 / radl=0 / no-splice / no-intra-refresh / ctu=64 / min-cu-size=8 / no-rect / no-amp / max-tu-size=32 / tu-inter-depth=1 / tu-intra-depth=1 / limit-tu=0 / rdoq-level=0 / dynamic-rd=0.00 / no-ssim-rd / signhide / no-tskip / nr-intra=0 / nr-inter=0 / no-constrained-intra / strong-intra-smoothing / max-merge=2 / limit-refs=3 / no-limit-modes / me=1 / subme=2 / merange=57 / temporal-mvp / weightp / no-weightb / no-analyze-src-pics / deblock=0:0 / no-sao / no-sao-non-deblock / rd=3 / no-early-skip / rskip / no-fast-intra / no-tskip-fast / no-cu-lossless / no-b-intra / no-splitrd-skip / rdpenalty=0 / psy-rd=2.00 / psy-rdoq=0.00 / no-rd-refine / no-lossless / cbqpoffs=0 / crqpoffs=0 / rc=crf / crf=16.0 / qcomp=0.60 / qpstep=4 / stats-write=0 / stats-read=0 / vbv-maxrate=160000 / vbv-bufsize=160000 / vbv-init=0.9 / crf-max=0.0 / crf-min=0.0 / ipratio=1.40 / pbratio=1.30 / aq-mode=1 / aq-strength=1.00 / cutree / zone-count=0 / no-strict-cbr / qg-size=32 / no-rc-grain / qpmax=69 / qpmin=0 / no-const-vbv / sar=1 / overscan=0 / videoformat=5 / range=0 / colorprim=2 / transfer=2 / colormatrix=2 / chromaloc=0 / display-window=0 / max-cll=0,0 / min-luma=0 / max-luma=1023 / log2-max-poc-lsb=8 / vui-timing-info / vui-hrd-info / slices=1 / opt-qp-pps / opt-ref-list-length-pps / no-multi-pass-opt-rps / scenecut-bias=0.05 / no-opt-cu-delta-qp / no-aq-motion / no-hdr / no-hdr-opt / no-dhdr10-opt / no-idr-recovery-sei / analysis-reuse-level=5 / scale-factor=0 / refine-intra=0 / refine-inter=0 / refine-mv=0 / refine-ctu-distortion=0 / no-limit-sao / ctu-info=0 / no-lowpass-dct / refine-analysis-type=0 / copy-pic=1 / max-ausize-factor=1.0 / no-dynamic-refine / no-single-sei / no-hevc-aq / qp-adaptation-range=1.00
  21. Default                                  : Yes
  22. Forced                                   : No
  23. Audio #1
  24. ID                                       : 2
  25. ID in the original source medium         : 4352 (0x1100)
  26. Format                                   : MLP FBA 16-ch
  27. Format/Info                              : Meridian Lossless Packing FBA with 16-channel presentation
  28. Commercial name                          : Dolby TrueHD with Dolby Atmos
  29. Codec ID                                 : A_TRUEHD
  30. Duration                                 : 1 h 38 min
  31. Bit rate mode                            : Variable
  32. Bit rate                                 : 4 174 kb/s
  33. Maximum bit rate                         : 7 536 kb/s
  34. Channel(s)                               : 8 channels
  35. Channel layout                           : L R C LFE Ls Rs Lb Rb
  36. Sampling rate                            : 48.0 kHz
  37. Frame rate                               : 1 200.000 FPS (40 SPF)
  38. Bit depth                                : 24 bits
  39. Compression mode                         : Lossless
  40. Stream size                              : 2.86 GiB (11%)
  41. Title                                    : TrueHD 7.1 Atmos
  42. Language                                 : English
  43. Default                                  : Yes
  44. Forced                                   : No
  45. Original source medium                   : Blu-ray
  46. Number of dynamic objects                : 11
  47. Bed channel count                        : 1 channel
  48. Bed channel configuration                : LFE
  49. Audio #2
  50. ID                                       : 3
  51. Format                                   : DTS XLL
  52. Format/Info                              : Digital Theater Systems
  53. Commercial name                          : DTS-HD Master Audio
  54. Codec ID                                 : A_DTS
  55. Duration                                 : 1 h 38 min
  56. Bit rate mode                            : Variable
  57. Bit rate                                 : 3 981 kb/s
  58. Channel(s)                               : 8 channels
  59. Channel layout                           : C L R LFE Lb Rb Lss Rss
  60. Sampling rate                            : 48.0 kHz
  61. Frame rate                               : 93.750 FPS (512 SPF)
  62. Bit depth                                : 24 bits
  63. Compression mode                         : Lossless
  64. Stream size                              : 2.73 GiB (11%)
  65. Title                                    : DTS-HD MA 7.1
  66. Language                                 : English
  67. Default                                  : No
  68. Forced                                   : No
  69. Audio #3
  70. ID                                       : 4
  71. ID in the original source medium         : 4352 (0x1100)
  72. Format                                   : AC-3
  73. Format/Info                              : Audio Coding 3
  74. Commercial name                          : Dolby Digital
  75. Codec ID                                 : A_AC3
  76. Duration                                 : 1 h 38 min
  77. Bit rate mode                            : Constant
  78. Bit rate                                 : 640 kb/s
  79. Channel(s)                               : 6 channels
  80. Channel layout                           : L R C LFE Ls Rs
  81. Sampling rate                            : 48.0 kHz
  82. Frame rate                               : 31.250 FPS (1536 SPF)
  83. Compression mode                         : Lossy
  84. Stream size                              : 450 MiB (2%)
  85. Title                                    : DD 5.1
  86. Language                                 : English
  87. Service kind                             : Complete Main
  88. Default                                  : No
  89. Forced                                   : No
  90. Original source medium                   : Blu-ray
  91. Text #1
  92. ID                                       : 5
  93. Format                                   : UTF-8
  94. Codec ID                                 : S_TEXT/UTF8
  95. Codec ID/Info                            : UTF-8 Plain Text
  96. Duration                                 : 1 h 26 min
  97. Bit rate                                 : 15 b/s
  98. Count of elements                        : 467
  99. Stream size                              : 9.84 KiB (0%)
  100. Title                                    : SRT
  101. Language                                 : English
  102. Default                                  : Yes
  103. Forced                                   : No
  104. Text #2
  105. ID                                       : 6
  106. ID in the original source medium         : 4768 (0x12A0)
  107. Format                                   : PGS
  108. Muxing mode                              : zlib
  109. Codec ID                                 : S_HDMV/PGS
  110. Codec ID/Info                            : Picture based subtitle format used on BDs/HD-DVDs
  111. Duration                                 : 1 h 30 min
  112. Bit rate                                 : 14.9 kb/s
  113. Count of elements                        : 1466
  114. Stream size                              : 9.67 MiB (0%)
  115. Language                                 : English
  116. Default                                  : No
  117. Forced                                   : No
  118. Original source medium                   : Blu-ray
  119. Text #3
  120. ID                                       : 7
  121. ID in the original source medium         : 4769 (0x12A1)
  122. Format                                   : PGS
  123. Muxing mode                              : zlib
  124. Codec ID                                 : S_HDMV/PGS
  125. Codec ID/Info                            : Picture based subtitle format used on BDs/HD-DVDs
  126. Duration                                 : 1 h 26 min
  127. Bit rate                                 : 9 894 b/s
  128. Count of elements                        : 986
  129. Stream size                              : 6.15 MiB (0%)
  130. Language                                 : English
  131. Default                                  : No
  132. Forced                                   : No
  133. Original source medium                   : Blu-ray
  134. Text #4
  135. ID                                       : 8
  136. ID in the original source medium         : 4770 (0x12A2)
  137. Format                                   : PGS
  138. Muxing mode                              : zlib
  139. Codec ID                                 : S_HDMV/PGS
  140. Codec ID/Info                            : Picture based subtitle format used on BDs/HD-DVDs
  141. Duration                                 : 1 h 36 min
  142. Bit rate                                 : 7 679 b/s
  143. Count of elements                        : 918
  144. Stream size                              : 5.29 MiB (0%)
  145. Language                                 : Chinese
  146. Default                                  : No
  147. Forced                                   : No
  148. Original source medium                   : Blu-ray
  149. Text #5
  150. ID                                       : 9
  151. ID in the original source medium         : 4771 (0x12A3)
  152. Format                                   : PGS
  153. Muxing mode                              : zlib
  154. Codec ID                                 : S_HDMV/PGS
  155. Codec ID/Info                            : Picture based subtitle format used on BDs/HD-DVDs
  156. Duration                                 : 1 h 36 min
  157. Bit rate                                 : 7 595 b/s
  158. Count of elements                        : 914
  159. Stream size                              : 5.23 MiB (0%)
  160. Language                                 : Chinese
  161. Default                                  : No
  162. Forced                                   : No
  163. Original source medium                   : Blu-ray
  164. Text #6
  165. ID                                       : 10
  166. ID in the original source medium         : 4772 (0x12A4)
  167. Format                                   : PGS
  168. Muxing mode                              : zlib
  169. Codec ID                                 : S_HDMV/PGS
  170. Codec ID/Info                            : Picture based subtitle format used on BDs/HD-DVDs
  171. Duration                                 : 1 h 36 min
  172. Bit rate                                 : 7 190 b/s
  173. Count of elements                        : 916
  174. Stream size                              : 4.95 MiB (0%)
  175. Language                                 : Chinese
  176. Default                                  : No
  177. Forced                                   : No
  178. Original source medium                   : Blu-ray
  179. Text #7
  180. ID                                       : 11
  181. ID in the original source medium         : 4773 (0x12A5)
  182. Format                                   : PGS
  183. Muxing mode                              : zlib
  184. Codec ID                                 : S_HDMV/PGS
  185. Codec ID/Info                            : Picture based subtitle format used on BDs/HD-DVDs
  186. Duration                                 : 1 h 36 min
  187. Bit rate                                 : 8 093 b/s
  188. Count of elements                        : 846
  189. Stream size                              : 5.57 MiB (0%)
  190. Language                                 : French
  191. Default                                  : No
  192. Forced                                   : No
  193. Original source medium                   : Blu-ray
  194. Text #8
  195. ID                                       : 12
  196. ID in the original source medium         : 4774 (0x12A6)
  197. Format                                   : PGS
  198. Muxing mode                              : zlib
  199. Codec ID                                 : S_HDMV/PGS
  200. Codec ID/Info                            : Picture based subtitle format used on BDs/HD-DVDs
  201. Duration                                 : 1 h 36 min
  202. Bit rate                                 : 9 795 b/s
  203. Count of elements                        : 906
  204. Stream size                              : 6.74 MiB (0%)
  205. Language                                 : Indonesian
  206. Default                                  : No
  207. Forced                                   : No
  208. Original source medium                   : Blu-ray
  209. Text #9
  210. ID                                       : 13
  211. ID in the original source medium         : 4775 (0x12A7)
  212. Format                                   : PGS
  213. Muxing mode                              : zlib
  214. Codec ID                                 : S_HDMV/PGS
  215. Codec ID/Info                            : Picture based subtitle format used on BDs/HD-DVDs
  216. Duration                                 : 1 h 36 min
  217. Bit rate                                 : 7 309 b/s
  218. Count of elements                        : 924
  219. Stream size                              : 5.03 MiB (0%)
  220. Language                                 : Korean
  221. Default                                  : No
  222. Forced                                   : No
  223. Original source medium                   : Blu-ray
  224. Text #10
  225. ID                                       : 14
  226. ID in the original source medium         : 4776 (0x12A8)
  227. Format                                   : PGS
  228. Muxing mode                              : zlib
  229. Codec ID                                 : S_HDMV/PGS
  230. Codec ID/Info                            : Picture based subtitle format used on BDs/HD-DVDs
  231. Duration                                 : 1 h 36 min
  232. Bit rate                                 : 10.4 kb/s
  233. Count of elements                        : 910
  234. Stream size                              : 7.16 MiB (0%)
  235. Language                                 : Malay
  236. Default                                  : No
  237. Forced                                   : No
  238. Original source medium                   : Blu-ray
  239. Text #11
  240. ID                                       : 15
  241. ID in the original source medium         : 4777 (0x12A9)
  242. Format                                   : PGS
  243. Muxing mode                              : zlib
  244. Codec ID                                 : S_HDMV/PGS
  245. Codec ID/Info                            : Picture based subtitle format used on BDs/HD-DVDs
  246. Duration                                 : 1 h 36 min
  247. Bit rate                                 : 9 196 b/s
  248. Count of elements                        : 890
  249. Stream size                              : 6.33 MiB (0%)
  250. Language                                 : Portuguese
  251. Default                                  : No
  252. Forced                                   : No
  253. Original source medium                   : Blu-ray
  254. Text #12
  255. ID                                       : 16
  256. ID in the original source medium         : 4777 (0x12A9)
  257. Format                                   : PGS
  258. Muxing mode                              : zlib
  259. Codec ID                                 : S_HDMV/PGS
  260. Codec ID/Info                            : Picture based subtitle format used on BDs/HD-DVDs
  261. Duration                                 : 1 h 36 min
  262. Bit rate                                 : 85 b/s
  263. Count of elements                        : 8
  264. Stream size                              : 60.0 KiB (0%)
  265. Language                                 : Portuguese
  266. Default                                  : No
  267. Forced                                   : No
  268. Original source medium                   : Blu-ray
  269. Text #13
  270. ID                                       : 17
  271. ID in the original source medium         : 4778 (0x12AA)
  272. Format                                   : PGS
  273. Muxing mode                              : zlib
  274. Codec ID                                 : S_HDMV/PGS
  275. Codec ID/Info                            : Picture based subtitle format used on BDs/HD-DVDs
  276. Duration                                 : 1 h 36 min
  277. Bit rate                                 : 9 040 b/s
  278. Count of elements                        : 896
  279. Stream size                              : 6.22 MiB (0%)
  280. Language                                 : Spanish
  281. Default                                  : No
  282. Forced                                   : No
  283. Original source medium                   : Blu-ray
  284. Text #14
  285. ID                                       : 18
  286. ID in the original source medium         : 4778 (0x12AA)
  287. Format                                   : PGS
  288. Muxing mode                              : zlib
  289. Codec ID                                 : S_HDMV/PGS
  290. Codec ID/Info                            : Picture based subtitle format used on BDs/HD-DVDs
  291. Duration                                 : 1 h 36 min
  292. Bit rate                                 : 55 b/s
  293. Count of elements                        : 4
  294. Stream size                              : 38.8 KiB (0%)
  295. Language                                 : Spanish
  296. Default                                  : No
  297. Forced                                   : No
  298. Original source medium                   : Blu-ray
  299. Text #15
  300. ID                                       : 19
  301. ID in the original source medium         : 4779 (0x12AB)
  302. Format                                   : PGS
  303. Muxing mode                              : zlib
  304. Codec ID                                 : S_HDMV/PGS
  305. Codec ID/Info                            : Picture based subtitle format used on BDs/HD-DVDs
  306. Duration                                 : 1 h 36 min
  307. Bit rate                                 : 8 157 b/s
  308. Count of elements                        : 914
  309. Stream size                              : 5.62 MiB (0%)
  310. Language                                 : Thai
  311. Default                                  : No
  312. Forced                                   : No
  313. Original source medium                   : Blu-ray
  314. Text #16
  315. ID                                       : 20
  316. ID in the original source medium         : 4780 (0x12AC)
  317. Format                                   : PGS
  318. Muxing mode                              : zlib
  319. Codec ID                                 : S_HDMV/PGS
  320. Codec ID/Info                            : Picture based subtitle format used on BDs/HD-DVDs
  321. Duration                                 : 1 h 36 min
  322. Bit rate                                 : 71 b/s
  323. Count of elements                        : 6
  324. Stream size                              : 50.6 KiB (0%)
  325. Language                                 : French
  326. Default                                  : No
  327. Forced                                   : No
  328. Original source medium                   : Blu-ray
  329. Text #17
  330. ID                                       : 21
  331. ID in the original source medium         : 4780 (0x12AC)
  332. Format                                   : PGS
  333. Muxing mode                              : zlib
  334. Codec ID                                 : S_HDMV/PGS
  335. Codec ID/Info                            : Picture based subtitle format used on BDs/HD-DVDs
  336. Duration                                 : 1 h 36 min
  337. Bit rate                                 : 71 b/s
  338. Count of elements                        : 6
  339. Stream size                              : 50.6 KiB (0%)
  340. Language                                 : French
  341. Default                                  : No
  342. Forced                                   : No
  343. Original source medium                   : Blu-ray
  344. Menu
  345. 00:00:00.000                             : en:Chapter 01
  346. 00:04:06.037                             : en:Chapter 02
  347. 00:08:39.477                             : en:Chapter 03
  348. 00:13:10.539                             : en:Chapter 04
  349. 00:19:12.776                             : en:Chapter 05
  350. 00:24:10.449                             : en:Chapter 06
  351. 00:28:03.890                             : en:Chapter 07
  352. 00:31:33.933                             : en:Chapter 08
  353. 00:37:14.774                             : en:Chapter 09
  354. 00:41:25.941                             : en:Chapter 10
  355. 00:45:21.593                             : en:Chapter 11
  356. 00:50:37.242                             : en:Chapter 12
  357. 00:55:42.630                             : en:Chapter 13
  358. 01:02:19.861                             : en:Chapter 14
  359. 01:09:26.245                             : en:Chapter 15
  360. 01:18:19.319                             : en:Chapter 16
复制代码





                                       
                                       

                                       
                                       
                                       




回复

使用道具 举报

蓝光币
169
发表于 2021-10-26 18:07:58 | 显示全部楼层

既然你诚信诚意的推荐了,那我就勉为其难的看看吧!蓝光电影网不走平凡路。
回复 支持 反对

使用道具 举报

蓝光币
3
发表于 2021-10-29 20:19:09 | 显示全部楼层
很不错的电影 要是有第一部就好了
回复 支持 反对

使用道具 举报

懒得打字嘛,点击右侧快捷回复 【右侧内容,后台自定义】
您需要登录后才可以回帖 登录 | 立即加入

本版积分规则

Archiver|小黑屋| 蓝光电影网 |网站地图

Copyright © 2021 Comsenz Inc. Powered by 蓝光电影网

蓝光电影网

本站内容由用户自主分享和转载自互联网,转载目的在于传递更多信息,并不代表本网赞同其观点和对其真实性负责。

如有侵权、违反国家法律政策行为,请联系我们,我们会第一时间及时清除和处理!

举报反馈邮箱:[email protected]

快速回复 返回顶部 返回列表