找回密码

蓝光电影网

查看: 132|回复: 0

[剧情] 4天情人节 4.Days.2016.TAGALOG.ENSUBBED.1080p.AMZN.WEBRip.DDP2.0.x264-Q0SWEB 5.23GB

[复制链接]
蓝光币
682
发表于 2021-10-26 17:13:28 | 显示全部楼层 |阅读模式


◎译  名 4天情人节
◎片  名 4 Days
◎年  代 2016
◎产  地 菲律宾
◎类  别 剧情
◎语  言 菲律宾语,他加禄语
◎上映日期 2016-08-12(菲律宾)
◎豆瓣评分 /10 from 0 users
◎豆瓣链接 https://movie.douban.com/subject/26881728/
◎片  长 76分钟
◎导  演 小阿多弗·亚历克斯 Adolfo Alix Jr.
◎编  剧 小阿多弗·亚历克斯 Adolfo Alix Jr.
◎主  演 塞巴斯蒂安·卡斯特罗 Sebastian Castro
◎标  签 菲律宾 | 青春 | 同性 | 恋爱 | 同道 | LGBT | 2016 | 菲律宾电影
◎简  介


  We sometimes have to wrestle with our own demons to find our true self.
  
  4 Days tells the story of two school friends who slowly realize they mean more to each other than either had initially realized. 4 Days joins Derek and Mark in the days leading up to Valentine's Day over the course of a few years- charting the blossoming of a friendship in to something much more enduring as time goes on- and challenging both to question who they thought they were and who they truly want to me. Painting a moving picture of how an abiding friendship can sometimes lead to love- and how we sometimes have to wrestle with our own demons to find their true self, 4 Days is an achingly romantic and delicate teenage love story.
  
  Lead actors Mikoy Morales and Sebastian Castro give exceptional, often heartbreaking performances in this thoughtful and patient romance ? wherein the awkward silences and furtive glances speak volumes.
  1. Video
  2. ID                                       : 1
  3. Format                                   : AVC
  4. Format/Info                              : Advanced Video Codec
  5. Format profile                           : [email protected]
  6. Format settings                          : CABAC / 4 Ref Frames
  7. Format settings, CABAC                   : Yes
  8. Format settings, Reference frames        : 4 frames
  9. Codec ID                                 : V_MPEG4/ISO/AVC
  10. Duration                                 : 1 h 15 min
  11. Bit rate mode                            : Constant
  12. Bit rate                                 : 10 000 kb/s
  13. Width                                    : 1 920 pixels
  14. Height                                   : 1 080 pixels
  15. Display aspect ratio                     : 16:9
  16. Frame rate mode                          : Constant
  17. Frame rate                               : 29.970 (30000/1001/189150) FPS
  18. Standard                                 : NTSC
  19. Color space                              : YUV
  20. Chroma subsampling                       : 4:2:0
  21. Bit depth                                : 8 bits
  22. Scan type                                : Progressive
  23. Bits/(Pixel*Frame)                       : 0.161
  24. Stream size                              : 5.11 GiB (98%)
  25. Default                                  : Yes
  26. Forced                                   : No
  27. Color range                              : Limited
  28. Color primaries                          : BT.709
  29. Transfer characteristics                 : BT.709
  30. Matrix coefficients                      : BT.709
  31. Audio
  32. ID                                       : 2
  33. Format                                   : E-AC-3
  34. Format/Info                              : Enhanced AC-3
  35. Commercial name                          : Dolby Digital Plus
  36. Codec ID                                 : A_EAC3
  37. Duration                                 : 1 h 15 min
  38. Bit rate mode                            : Constant
  39. Bit rate                                 : 224 kb/s
  40. Channel(s)                               : 2 channels
  41. Channel layout                           : L R
  42. Sampling rate                            : 48.0 kHz
  43. Frame rate                               : 31.250 FPS (1536 SPF)
  44. Compression mode                         : Lossy
  45. Stream size                              : 120 MiB (2%)
  46. Title                                    : English
  47. Language                                 : English
  48. Service kind                             : Complete Main
  49. Default                                  : No
  50. Forced                                   : No
  51. Text #1
  52. ID                                       : 3
  53. Format                                   : UTF-8
  54. Codec ID                                 : S_TEXT/UTF8
  55. Codec ID/Info                            : UTF-8 Plain Text
  56. Duration                                 : 1 h 14 min
  57. Bit rate                                 : 35 b/s
  58. Count of elements                        : 678
  59. Stream size                              : 19.7 KiB (0%)
  60. Title                                    : English [SDH]
  61. Language                                 : English
  62. Default                                  : No
  63. Forced                                   : No
  64. Text #2
  65. ID                                       : 4
  66. Format                                   : UTF-8
  67. Codec ID                                 : S_TEXT/UTF8
  68. Codec ID/Info                            : UTF-8 Plain Text
  69. Duration                                 : 1 h 10 min
  70. Bit rate                                 : 34 b/s
  71. Count of elements                        : 592
  72. Stream size                              : 17.9 KiB (0%)
  73. Title                                    : English
  74. Language                                 : English
  75. Default                                  : No
  76. Forced                                   : No
复制代码







                                       
                                       

                                       
                                       
                                       




回复

使用道具 举报

懒得打字嘛,点击右侧快捷回复 【右侧内容,后台自定义】
您需要登录后才可以回帖 登录 | 立即加入

本版积分规则

Archiver|小黑屋| 蓝光电影网 |网站地图

Copyright © 2021 Comsenz Inc. Powered by 蓝光电影网

蓝光电影网

本站内容由用户自主分享和转载自互联网,转载目的在于传递更多信息,并不代表本网赞同其观点和对其真实性负责。

如有侵权、违反国家法律政策行为,请联系我们,我们会第一时间及时清除和处理!

举报反馈邮箱:[email protected]

快速回复 返回顶部 返回列表